<?xml version="1.0" standalone="no"?>
<!DOCTYPE svg PUBLIC "-//W3C//DTD SVG 1.1//EN" "http://www.w3.org/Graphics/SVG/1.1/DTD/svg11.dtd" >
<svg xmlns="http://www.w3.org/2000/svg" xmlns:xlink="http://www.w3.org/1999/xlink" version="1.1">
<metadata>
Created by FontForge 20170731 at Fri Dec  2 17:29:53 2022
 By Aleksey,,,
Copyright 2020 The KumbhSans Project Authors (https://github.com/xconsau/KumbhSans)
</metadata>
<defs>
<font id="KumbhSans-Bold" horiz-adv-x="1222" >
  <font-face 
    font-family="Kumbh Sans"
    font-weight="700"
    font-stretch="normal"
    units-per-em="2048"
    panose-1="0 0 0 0 0 0 0 0 0 0"
    ascent="1638"
    descent="-410"
    x-height="1000"
    cap-height="1500"
    bbox="-228 -520 2384 2020"
    underline-thickness="120"
    underline-position="-385"
    unicode-range="U+000D-FEFF"
  />
<missing-glyph horiz-adv-x="1172" 
d="M1046 0h-920v1500h920v-1500zM909 1420h-646l323 -576zM946 203v1119l-314 -560zM226 1322v-1119l314 559zM249 80h674l-337 601z" />
    <glyph glyph-name="f_f" unicode="ff" horiz-adv-x="1708" 
d="M524 0h-287v744h-175v256h175v156q0 108 51.5 192.5t141 133t203.5 48.5q72 0 146.5 -20.5t147.5 -64.5l-109 -223q-32 26 -67.5 38.5t-70.5 12.5q-66 0 -111 -46t-45 -127v-100h472v156q0 108 51 192.5t140.5 133t203.5 48.5q72 0 147 -20.5t148 -64.5l-109 -223
q-65 51 -138 51q-66 0 -110.5 -46t-44.5 -127v-100h298v-256h-298v-744h-287v744h-473v-744z" />
    <glyph glyph-name="fi" unicode="fi" horiz-adv-x="1340" 
d="M524 0h-287v744h-175v256h175v156q0 108 51 192.5t141 133t204 48.5q72 0 147 -20.5t147 -64.5l-109 -223q-32 26 -67.5 38.5t-70.5 12.5q-66 0 -111 -45.5t-45 -127.5v-100h694v-1000h-286v744h-408v-744z" />
    <glyph glyph-name="fl" unicode="fl" horiz-adv-x="1410" 
d="M1288 0h-287v1050q0 108 -65 173t-171 65t-173.5 -64t-67.5 -164v-60h299v-257h-299v-743h-287v743h-175v257h175v66q0 135 67.5 240t186 164.5t271.5 59.5q156 0 274.5 -61.5t185 -171t66.5 -254.5v-1043z" />
    <glyph glyph-name="f_f_i" unicode="ffi" horiz-adv-x="2047" 
d="M1230 0h-287v744h-419v-744h-287v744h-175v256h175v156q0 108 51.5 192.5t141 133t203.5 48.5q72 0 146.5 -20.5t147.5 -64.5l-109 -223q-32 26 -67.5 38.5t-70.5 12.5q-66 0 -111 -46t-45 -127v-100h419v156q0 108 51.5 192.5t141 133t203.5 48.5q72 0 147 -20.5
t147 -64.5l-109 -223q-31 26 -67 38.5t-70 12.5q-67 0 -112 -45.5t-45 -127.5v-100h695v-1000h-287v744h-408v-744z" />
    <glyph glyph-name="f_f_l" unicode="ffl" horiz-adv-x="2114" 
d="M1992 0h-287v1050q0 108 -65 173t-173 65q-105 0 -172 -64t-67 -164v-60h298v-257h-298v-743h-287v743l-417 1v-744h-287v744h-175v256h175v156q0 108 51.5 192.5t141 133t203.5 48.5q72 0 146.5 -20.5t147.5 -64.5l-109 -223q-32 26 -67.5 38.5t-70.5 12.5
q-66 0 -111 -46t-45 -127v-100h417v66q0 135 67.5 240t186 164.5t271.5 59.5q157 0 275 -61.5t184.5 -171t66.5 -254.5v-1043z" />
    <glyph glyph-name="longs_t" unicode="&#x17f;t" horiz-adv-x="1637" 
d="M524 0h-287v743h-175v257h175v66q0 135 67.5 240t186 164.5t271.5 59.5q156 0 274.5 -61.5t185 -171t66.5 -254.5v-633q0 -82 45 -127.5t111 -45.5q62 0 120 38l39 -249q-113 -46 -222 -46q-113 0 -198.5 48.5t-133.5 135t-48 200.5v686q0 108 -65 173t-171 65
t-173.5 -64t-67.5 -164v-60h299v-257h-299v-743z" />
    <glyph glyph-name=".notdef" horiz-adv-x="1172" 
d="M1046 0h-920v1500h920v-1500zM909 1420h-646l323 -576zM946 203v1119l-314 -560zM226 1322v-1119l314 559zM249 80h674l-337 601z" />
    <glyph glyph-name=".null" horiz-adv-x="0" 
 />
    <glyph glyph-name="nonmarkingreturn" horiz-adv-x="682" 
 />
    <glyph glyph-name="NULL" horiz-adv-x="850" 
 />
    <glyph glyph-name="NULL" horiz-adv-x="850" 
 />
    <glyph glyph-name="CR" unicode="&#xd;" horiz-adv-x="842" 
 />
    <glyph glyph-name="space" unicode=" " horiz-adv-x="464" 
 />
    <glyph glyph-name="exclam" unicode="!" horiz-adv-x="484" 
d="M320 412h-156l-39 1088h234zM241 -20q-57 0 -96 39t-39 94q0 56 39 94.5t96 38.5q58 0 97.5 -38.5t39.5 -94.5q0 -55 -39.5 -94t-97.5 -39z" />
    <glyph glyph-name="quotedbl" unicode="&#x22;" horiz-adv-x="798" 
d="M307 1085h-154l-27 435h208zM645 1085h-154l-27 435h208z" />
    <glyph glyph-name="numbersign" unicode="#" horiz-adv-x="1342" 
d="M1270 850h-223l-52 -294h230l-31 -190h-232l-65 -366h-228l65 366h-266l-65 -366h-227l64 366h-198l30 190h202l52 294h-209l31 190h212l81 460h227l-81 -460h266l81 460h228l-81 -460h219zM502 556h265l52 294h-266z" />
    <glyph glyph-name="dollar" unicode="$" horiz-adv-x="1092" 
d="M52 230l129 210q63 -50 120 -81.5t112.5 -46t112.5 -14.5q69 0 119 19.5t77.5 55t27.5 84.5q0 56 -35 94t-91 66t-119 55q-66 27 -132 59t-121 75t-88 106t-33 152q0 150 95 246.5t249 120.5l-5 189h182l-6 -183q81 -7 165.5 -31t167.5 -66l-107 -221q-63 38 -136 60
t-137 22q-84 0 -136 -39t-52 -102q0 -51 34 -87.5t90 -65t121 -57.5q65 -28 130.5 -61t121 -78.5t89 -108t33.5 -150.5q0 -101 -47.5 -181t-133.5 -132.5t-203 -69.5l6 -189h-182l5 183q-114 8 -222 51t-201 116z" />
    <glyph glyph-name="percent" unicode="%" horiz-adv-x="1626" 
d="M391 873q-152 0 -245.5 89t-93.5 234q0 146 93.5 235t245.5 89q153 0 246.5 -89t93.5 -235q0 -145 -93.5 -234t-246.5 -89zM452 1h-237l967 1500h237zM391 1033q63 0 102 45.5t39 118.5q0 74 -39 118.5t-102 44.5t-101.5 -44.5t-38.5 -118.5q0 -73 38.5 -118.5
t101.5 -45.5zM1235 -21q-152 0 -245.5 89.5t-93.5 234.5q0 146 93.5 235t245.5 89q153 0 246 -89t93 -235q0 -145 -93.5 -234.5t-245.5 -89.5zM1235 140q63 0 101.5 45t38.5 118q0 74 -38.5 119t-101.5 45q-64 0 -102 -45t-38 -119q0 -73 38 -118t102 -45z" />
    <glyph glyph-name="ampersand" unicode="&#x26;" horiz-adv-x="1471" 
d="M1429 150l-122 -180q-66 42 -128.5 84.5t-121.5 85.5q-97 -83 -211 -126.5t-240 -43.5q-146 0 -262.5 55.5t-184 152.5t-67.5 220q0 99 42.5 171t110.5 126t145 98q-65 103 -100 198.5t-35 179.5q0 105 50 186t138.5 127t201.5 46q110 0 194.5 -42.5t132.5 -118.5
t48 -174q0 -108 -49 -183.5t-125.5 -130.5t-159.5 -101q64 -80 149.5 -164.5t192.5 -172.5q44 62 80 139t62 166l218 -68q-33 -110 -78 -204.5t-102 -172.5q58 -43 107.5 -78t113.5 -75zM595 911q51 33 91.5 69.5t64.5 81.5t24 103q0 71 -36 115.5t-94 44.5q-59 0 -97 -46
t-38 -121q0 -53 21.5 -116t63.5 -131zM488 659q-37 -28 -66 -60t-45.5 -69.5t-16.5 -84.5q0 -70 35.5 -125t97 -86.5t140.5 -31.5q62 0 121 21t114 61q-115 95 -210.5 189.5t-169.5 185.5z" />
    <glyph glyph-name="quotesingle" unicode="'" horiz-adv-x="452" 
d="M303 1085h-154l-27 435h208z" />
    <glyph glyph-name="parenleft" unicode="(" horiz-adv-x="646" 
d="M604 -289h-280q-136 184 -209 420.5t-73 493.5t73 493.5t209 421.5h280q-152 -198 -232 -431.5t-80 -481.5q0 -247 80 -482t232 -434z" />
    <glyph glyph-name="parenright" unicode=")" horiz-adv-x="646" 
d="M322 -289h-280q152 199 232 434t80 482q0 248 -80 481.5t-232 431.5h280q137 -185 209.5 -421.5t72.5 -493.5t-72.5 -493.5t-209.5 -420.5z" />
    <glyph glyph-name="asterisk" unicode="*" horiz-adv-x="1049" 
d="M891 745l-178 -130l-188 324l-189 -324l-178 130l246 281l-362 81l68 209l341 -149l-36 374h220l-36 -374l341 149l67 -209l-363 -81z" />
    <glyph glyph-name="plus" unicode="+" horiz-adv-x="1121" 
d="M999 374h-313v-310h-251v310h-313v227h313v309h251v-309h313v-227z" />
    <glyph glyph-name="comma" unicode="," horiz-adv-x="482" 
d="M274 -240h-192l74 432h234z" />
    <glyph glyph-name="hyphen" unicode="-" horiz-adv-x="1044" 
d="M922 392h-800v219h800v-219z" />
    <glyph glyph-name="period" unicode="." horiz-adv-x="485" 
d="M242 -20q-60 0 -97.5 37.5t-37.5 98.5t37.5 98.5t97.5 37.5q61 0 99 -37.5t38 -98.5t-38 -98.5t-99 -37.5z" />
    <glyph glyph-name="slash" unicode="/" horiz-adv-x="933" 
d="M283 -20h-271l639 1540h270z" />
    <glyph glyph-name="zero" unicode="0" horiz-adv-x="1239" 
d="M619 -30q-168 0 -291 91.5t-190.5 266t-67.5 423.5q0 248 67.5 422t190.5 265.5t291 91.5q169 0 292 -91.5t190.5 -265.5t67.5 -422q0 -249 -67 -423.5t-190.5 -266t-292.5 -91.5zM619 239q112 0 173.5 134t61.5 377q0 244 -61.5 377.5t-173.5 133.5q-110 0 -172 -133.5
t-62 -377.5q0 -243 62 -377t172 -134z" />
    <glyph glyph-name="one" unicode="1" horiz-adv-x="843" 
d="M697 0h-308v1198l-251 -92l-96 245l410 149h245v-1500z" />
    <glyph glyph-name="two" unicode="2" horiz-adv-x="1223" 
d="M1111 0h-956v181q177 158 297.5 279t192.5 216t104 174.5t32 154.5q0 77 -28.5 135t-80 90t-119.5 32q-78 0 -151 -44.5t-124 -122.5l-156 196q88 114 218.5 176.5t271.5 62.5q134 0 244 -57t175 -162t65 -248q0 -100 -34.5 -201.5t-100 -201.5t-160 -198.5
t-215.5 -192.5h525v-269z" />
    <glyph glyph-name="three" unicode="3" horiz-adv-x="1172" 
d="M88 130l118 228q80 -59 157.5 -89t150.5 -30q71 0 125.5 27t85.5 75t31 110q0 103 -85 160.5t-237 57.5h-64v214h64q82 0 146.5 26.5t101.5 73t37 106.5q0 50 -26.5 89t-72 61t-104.5 22q-61 0 -127.5 -26t-139.5 -79l-135 214q88 77 199 118.5t232 41.5q135 0 239.5 -49
t165 -135t60.5 -198q0 -122 -71 -218t-187 -147q151 -42 237.5 -140t86.5 -238q0 -125 -69.5 -223.5t-189.5 -155t-273 -56.5q-126 0 -243 41.5t-213 118.5z" />
    <glyph glyph-name="four" unicode="4" horiz-adv-x="1297" 
d="M1072 0h-308v306h-722v235l723 959h307v-925h183v-269h-183v-306zM326 575h438v581z" />
    <glyph glyph-name="five" unicode="5" horiz-adv-x="1170" 
d="M70 155l159 250q39 -75 117 -120.5t169 -45.5q79 0 140 34t95.5 94.5t34.5 138.5q0 79 -34.5 139t-96.5 94t-141 34q-60 0 -113 -21t-95 -61l-149 87l66 722h789v-269h-507l-33 -317q67 19 142 19q140 0 250 -60t173.5 -164t63.5 -239q0 -144 -72.5 -257t-198 -178
t-287.5 -65q-135 0 -258.5 48.5t-213.5 136.5z" />
    <glyph glyph-name="six" unicode="6" horiz-adv-x="1197" 
d="M598 -30q-161 0 -279.5 72t-183.5 203.5t-65 309.5q0 144 44 279t128 256.5t205.5 225t276.5 184.5l142 -197q-117 -64 -214 -146t-170 -175t-117 -191q57 60 136.5 93t176.5 33q131 0 232.5 -58t159 -159t57.5 -233q0 -144 -68.5 -256.5t-187.5 -176.5t-273 -64z
M599 239q61 0 108.5 32.5t76 88.5t28.5 125q0 68 -27.5 120t-74.5 82.5t-108 30.5t-110 -31t-77 -84.5t-28 -121.5q0 -69 28.5 -123.5t76.5 -86.5t107 -32z" />
    <glyph glyph-name="seven" unicode="7" horiz-adv-x="1074" 
d="M496 0h-333l507 1231h-628v269h990v-201z" />
    <glyph glyph-name="eight" unicode="8" horiz-adv-x="1184" 
d="M591 -30q-156 0 -273 53t-181.5 149.5t-64.5 225.5q0 143 80.5 246.5t219.5 149.5q-116 44 -181.5 134.5t-65.5 214.5q0 118 57.5 205t162.5 134.5t247 47.5q141 0 246 -47.5t162.5 -134.5t57.5 -205q0 -124 -65.5 -214.5t-181.5 -134.5q140 -46 220.5 -149.5
t80.5 -246.5q0 -128 -65 -224.5t-182 -150t-274 -53.5zM592 924q74 0 120 51.5t46 134.5t-46 135t-120 52t-120.5 -52t-46.5 -135t46 -134.5t121 -51.5zM592 215q63 0 111 28.5t75 80.5t27 119q0 69 -27 120.5t-75 80t-112 28.5q-63 0 -110.5 -28.5t-74.5 -80t-27 -120.5
q0 -67 27 -118.5t75 -80.5t111 -29z" />
    <glyph glyph-name="nine" unicode="9" horiz-adv-x="1197" 
d="M472 0l-140 197q117 64 214 146t169.5 175t116.5 191q-56 -60 -136 -93t-177 -33q-132 0 -233 58t-158.5 159t-57.5 233q0 144 68.5 256.5t188.5 176.5t272 64q162 0 280 -72t183 -203.5t65 -309.5q0 -144 -44 -279t-128 -256.5t-205.5 -225t-277.5 -184.5zM594 782
q63 0 111 31t76 85t28 122t-27.5 122.5t-75.5 86.5t-108 32t-108 -32.5t-76 -88t-28 -125.5q0 -67 27 -119.5t74 -83t107 -30.5z" />
    <glyph glyph-name="colon" unicode=":" horiz-adv-x="485" 
d="M242 707q-57 0 -96 39.5t-39 96.5t39 97t96 40t96.5 -40t39.5 -97t-39 -96.5t-97 -39.5zM242 -20q-57 0 -96 40t-39 97q0 56 39 96t96 40t96.5 -40t39.5 -96q0 -57 -39 -97t-97 -40z" />
    <glyph glyph-name="semicolon" unicode=";" horiz-adv-x="482" 
d="M259 707q-57 0 -96 39.5t-39 96.5t39 97t96 40t97 -40t40 -97t-40 -96.5t-97 -39.5zM275 -240h-193l74 432h234z" />
    <glyph glyph-name="less" unicode="&#x3c;" horiz-adv-x="1083" 
d="M961 0l-919 445v132l919 443v-238l-620 -271l620 -274v-237z" />
    <glyph glyph-name="equal" unicode="=" horiz-adv-x="1199" 
d="M1077 630h-955v221h955v-221zM1077 143h-955v221h955v-221z" />
    <glyph glyph-name="greater" unicode="&#x3e;" horiz-adv-x="1083" 
d="M122 0v237l619 274l-619 271v238l919 -443v-132z" />
    <glyph glyph-name="question" unicode="?" horiz-adv-x="935" 
d="M186 1160l-114 232q188 138 409 138q126 0 218.5 -44t143 -125t50.5 -194q0 -71 -21 -124.5t-58.5 -99t-84.5 -92.5q-48 -49 -95 -106t-77.5 -136.5t-30.5 -196.5h-246q0 146 31.5 241.5t77.5 158.5t89 111q43 47 73.5 91.5t30.5 104.5q0 72 -45.5 115t-123.5 43
q-64 0 -124 -31t-103 -86zM404 -20q-61 0 -98.5 37.5t-37.5 98.5t37.5 98.5t98.5 37.5q60 0 97.5 -37.5t37.5 -98.5t-37.5 -98.5t-97.5 -37.5z" />
    <glyph glyph-name="at" unicode="@" horiz-adv-x="1903" 
d="M901 70q-126 0 -224 59t-154.5 162.5t-56.5 236.5q0 143 64.5 258t174.5 182t247 67q104 0 188 -40.5t139 -116.5l7 95h173q-7 -49 -14.5 -114t-15 -135t-13.5 -137t-9.5 -120t-3.5 -84q0 -62 28 -104.5t72 -42.5q46 0 83.5 49.5t60 132t22.5 183.5q0 190 -82 333
t-229 222.5t-342 79.5q-161 0 -298.5 -54.5t-239.5 -153t-159 -230.5t-57 -288q0 -180 76 -316.5t211 -212.5t313 -76q214 0 406 109l73 -169q-247 -119 -497 -119q-234 0 -412 99.5t-278 275.5t-100 408q0 195 71.5 360.5t201 288.5t304 191t379.5 68q189 0 344.5 -58
t269 -164.5t175.5 -252t62 -321.5q0 -163 -46 -287.5t-127.5 -195t-187.5 -70.5q-86 0 -150 47.5t-94 132.5q-63 -86 -154.5 -132t-200.5 -46zM941 250q77 0 141.5 34.5t108 94.5t56.5 139l5 63q0 82 -32.5 144t-90.5 96.5t-135 34.5q-88 0 -157.5 -43.5t-110 -118.5
t-40.5 -169q0 -124 70 -199.5t185 -75.5z" />
    <glyph glyph-name="A" unicode="A" horiz-adv-x="1568" 
d="M347 0h-323l598 1500h325l597 -1500h-323l-123 322h-628zM571 592h427l-214 556z" />
    <glyph glyph-name="B" unicode="B" horiz-adv-x="1325" 
d="M122 0v1500h555q242 0 375.5 -102.5t133.5 -287.5q0 -113 -53 -199.5t-143 -131.5q128 -38 199.5 -130.5t71.5 -226.5q0 -128 -62.5 -222.5t-176 -147t-266.5 -52.5h-634zM430 872h230q103 0 163 49t60 133q0 82 -60.5 129.5t-167.5 47.5h-225v-359zM430 269h249
q82 0 142 23.5t92.5 67t32.5 101.5t-29.5 99t-85.5 62.5t-133 21.5h-268v-375z" />
    <glyph glyph-name="C" unicode="C" horiz-adv-x="1500" 
d="M1422 188q-105 -102 -249 -160t-313 -58q-171 0 -315 58.5t-250.5 164t-165.5 247.5t-59 310t59 310.5t165.5 247.5t250.5 163.5t315 58.5q168 0 311.5 -58t248.5 -161l-215 -216q-63 77 -153.5 121.5t-196.5 44.5q-101 0 -186.5 -38.5t-149.5 -108t-99 -162.5t-35 -201
q0 -110 35 -203t99 -162.5t149.5 -108t186.5 -38.5q106 0 196 44.5t153 121.5z" />
    <glyph glyph-name="D" unicode="D" horiz-adv-x="1571" 
d="M122 0v1500h491q272 0 471 -92t308 -260t109 -398q0 -229 -109 -397.5t-308 -260.5t-471 -92h-491zM430 269h194q180 0 305.5 56.5t191 164t65.5 260.5q0 154 -65.5 261t-191 163.5t-305.5 56.5h-194v-962z" />
    <glyph glyph-name="E" unicode="E" horiz-adv-x="1212" 
d="M122 0v1500h968v-269h-660v-341h619v-270h-619v-351h670v-269h-978z" />
    <glyph glyph-name="F" unicode="F" horiz-adv-x="1172" 
d="M122 0v1500h938v-269h-630v-341h589v-270h-589v-620h-308z" />
    <glyph glyph-name="G" unicode="G" horiz-adv-x="1646" 
d="M1206 1123q-66 66 -157.5 102t-195.5 36t-190 -36t-148 -103t-96 -159.5t-34 -206.5t34.5 -209t98 -163.5t151 -106.5t193.5 -38q88 0 161.5 27t129.5 77t92.5 121t50.5 159h-435v235h706l9 -116q0 -171 -52.5 -313t-148.5 -244.5t-228.5 -158.5t-293.5 -56
q-167 0 -309.5 59t-249 165t-165.5 248.5t-59 308.5t58.5 307.5t164 247.5t246.5 165t307 59q155 0 300 -54t259 -154z" />
    <glyph glyph-name="H" unicode="H" horiz-adv-x="1509" 
d="M430 0h-308v1500h308v-627h649v627h308v-1500h-308v604h-649v-604z" />
    <glyph glyph-name="I" unicode="I" horiz-adv-x="552" 
d="M430 1500h-308v-1500h308v1500z" />
    <glyph glyph-name="J" unicode="J" horiz-adv-x="547" 
d="M-213 -360l-15 269q175 0 260 83t85 250v1258h308v-1254q0 -216 -64.5 -349.5t-205 -195t-368.5 -61.5z" />
    <glyph glyph-name="K" unicode="K" horiz-adv-x="1477" 
d="M430 0h-308v1500h308v-738q45 66 86 122t70 92l416 524h363l-550 -692l656 -808h-399l-454 561l-188 -237v-324z" />
    <glyph glyph-name="L" unicode="L" horiz-adv-x="1144" 
d="M1102 0h-980v1500h308v-1231h672v-269z" />
    <glyph glyph-name="M" unicode="M" horiz-adv-x="1847" 
d="M1725 0h-308v1060l-375 -808h-238l-374 805v-1057h-308v1500h391l410 -906l410 906h392v-1500z" />
    <glyph glyph-name="N" unicode="N" horiz-adv-x="1607" 
d="M1485 0h-354l-701 1024v-1024h-308v1500h354l701 -1026v1026h308v-1500z" />
    <glyph glyph-name="O" unicode="O" horiz-adv-x="1718" 
d="M860 -30q-171 0 -315.5 58.5t-251 164t-165 247.5t-58.5 310t58.5 310.5t165 248t251 163.5t315.5 58t315 -58.5t249.5 -163.5t164.5 -247t59 -311q0 -168 -58.5 -310.5t-164.5 -247.5t-250 -163.5t-315 -58.5zM860 239q101 0 187.5 39t150.5 108.5t99.5 162t35.5 201.5
t-35.5 202t-99.5 162.5t-150.5 108t-187.5 38.5q-102 0 -188.5 -38.5t-151 -108t-100 -162.5t-35.5 -202t35.5 -202t100 -162.5t151 -108t188.5 -38.5z" />
    <glyph glyph-name="P" unicode="P" horiz-adv-x="1341" 
d="M122 0v1500h513q189 0 326.5 -61.5t211.5 -175t74 -270.5t-74 -271.5t-210.5 -176.5t-324.5 -62h-208v-483h-308zM430 753h176q157 0 241.5 62.5t84.5 177.5q0 113 -84.5 175.5t-241.5 62.5h-176v-478z" />
    <glyph glyph-name="Q" unicode="Q" horiz-adv-x="1722" 
d="M1579 -249q-143 29 -253 59t-208.5 68.5t-211.5 92.5h-46q-171 0 -315.5 58.5t-251 163.5t-165 247t-58.5 310t58.5 310.5t165 248t251 163.5t315.5 58t315 -58.5t249.5 -163.5t164.5 -247t59 -311q0 -158 -53 -293.5t-148.5 -238.5t-225.5 -163q73 -17 140 -29
t136.5 -19t147.5 -10zM860 239q101 0 187.5 39t150.5 108.5t99.5 162t35.5 201.5t-35.5 202t-99.5 162.5t-150.5 108t-187.5 38.5q-102 0 -188.5 -38.5t-151 -108t-100 -162.5t-35.5 -202t35.5 -202t100 -162.5t151 -108t188.5 -38.5z" />
    <glyph glyph-name="R" unicode="R" horiz-adv-x="1414" 
d="M1372 0h-341l-315 542h-286v-542h-308v1500h608q181 0 310 -57t197.5 -164.5t68.5 -257.5q0 -154 -72.5 -262.5t-206.5 -162.5zM430 787h277q137 0 210.5 57.5t73.5 164.5t-73.5 164.5t-210.5 57.5h-277v-444z" />
    <glyph glyph-name="S" unicode="S" horiz-adv-x="1230" 
d="M52 162l146 235q69 -56 133.5 -91.5t127.5 -52t129 -16.5q78 0 135 22t88.5 63t31.5 95q0 63 -40 106t-104.5 75.5t-139.5 62.5q-73 30 -146.5 65.5t-135 84.5t-99 119.5t-37.5 171.5q0 132 66.5 228t182.5 148t265 52q105 0 218.5 -28t226.5 -85l-121 -249
q-71 43 -153 68t-154 25q-65 0 -113.5 -20t-75.5 -55.5t-27 -83.5q0 -57 39 -98.5t101.5 -73.5t134.5 -64q74 -32 149.5 -70t138 -89.5t101 -123t38.5 -171.5q0 -132 -70 -231.5t-195 -155t-291 -55.5q-152 0 -291 49t-259 143z" />
    <glyph glyph-name="T" unicode="T" horiz-adv-x="1233" 
d="M770 0h-308v1231h-442v269h1193v-269h-443v-1231z" />
    <glyph glyph-name="U" unicode="U" horiz-adv-x="1554" 
d="M1432 1500v-825q0 -220 -78.5 -378t-225 -242.5t-351.5 -84.5q-204 0 -351 84.5t-225.5 242.5t-78.5 378v825h308v-787q0 -157 39.5 -262t116.5 -158.5t191 -53.5t191 53.5t116.5 158.5t39.5 262v787h308z" />
    <glyph glyph-name="V" unicode="V" horiz-adv-x="1585" 
d="M956 0h-326l-598 1500h323l438 -1148l436 1148h324z" />
    <glyph glyph-name="W" unicode="W" horiz-adv-x="2207" 
d="M1693 0h-283l-305 992l-306 -992h-283l-488 1500h323l306 -997l306 997h283l305 -995l304 995h324z" />
    <glyph glyph-name="X" unicode="X" horiz-adv-x="1581" 
d="M1553 0h-387l-386 542l-387 -542h-365l574 770l-529 730h387l341 -480l333 480h377l-531 -722z" />
    <glyph glyph-name="Y" unicode="Y" horiz-adv-x="1476" 
d="M892 0h-308v641l-568 859h374l346 -588l350 588h374l-568 -860v-640z" />
    <glyph glyph-name="Z" unicode="Z" horiz-adv-x="1286" 
d="M1216 0h-1146v228l729 1003h-689v269h1093v-238l-721 -993h734v-269z" />
    <glyph glyph-name="bracketleft" unicode="[" horiz-adv-x="667" 
d="M625 -289h-503v1829h503v-227h-253v-1372h253v-230z" />
    <glyph glyph-name="backslash" unicode="\" horiz-adv-x="933" 
d="M921 -20h-270l-639 1540h271z" />
    <glyph glyph-name="bracketright" unicode="]" horiz-adv-x="667" 
d="M545 -289h-503v227h253v1375h-253v227h503v-1829z" />
    <glyph glyph-name="asciicircum" unicode="^" horiz-adv-x="1076" 
d="M1034 700h-220l-276 573l-276 -573h-220l417 800h158z" />
    <glyph glyph-name="underscore" unicode="_" horiz-adv-x="1326" 
d="M1204 0h-1082v227h1082v-227z" />
    <glyph glyph-name="grave" unicode="`" horiz-adv-x="516" 
d="M454 1162h-204l-198 338h260z" />
    <glyph glyph-name="a" unicode="a" horiz-adv-x="1116" 
d="M1014 0h-250l-15 119q-55 -66 -136 -102.5t-178 -36.5q-105 0 -187 40.5t-129 112t-47 162.5q0 96 51 169t140.5 114.5t203.5 41.5q67 0 134.5 -15t125.5 -42v26q0 60 -33.5 103.5t-92 67.5t-130.5 24q-69 0 -136.5 -22t-124.5 -66l-78 219q101 52 204.5 78.5t200.5 26.5
q146 0 253 -57.5t165.5 -162t58.5 -247.5v-553zM498 201q57 0 109 25t84.5 68t34.5 95v7q-44 30 -97.5 46.5t-108.5 16.5q-82 0 -134 -36t-52 -93q0 -37 21.5 -66.5t58.5 -46t84 -16.5z" />
    <glyph glyph-name="b" unicode="b" horiz-adv-x="1273" 
d="M374 0h-252v1500h287v-614q63 63 146.5 98.5t181.5 35.5q138 0 245 -67.5t169 -185t62 -267.5q0 -149 -62 -267t-169 -185.5t-245 -67.5q-106 0 -195.5 41.5t-153.5 114.5zM664 237q73 0 130.5 34t91 94t33.5 136q0 75 -33.5 134.5t-91 93.5t-130.5 34q-69 0 -125.5 -31
t-90.5 -85t-39 -124v-44q5 -70 39 -124.5t90 -86t126 -31.5z" />
    <glyph glyph-name="c" unicode="c" horiz-adv-x="1062" 
d="M1008 159q-73 -84 -179 -131.5t-233 -47.5q-154 0 -275.5 67.5t-191 185.5t-69.5 267q0 150 69.5 267.5t191 185t275.5 67.5q126 0 232 -47t179 -130l-169 -177q-39 45 -98.5 70.5t-124.5 25.5q-75 0 -134 -33.5t-93 -92t-34 -134.5q0 -77 34 -137t93 -93.5t134 -33.5
q65 0 125 25.5t98 70.5z" />
    <glyph glyph-name="d" unicode="d" horiz-adv-x="1274" 
d="M1152 0h-252l-15 136q-64 -72 -153.5 -114t-195.5 -42q-137 0 -244.5 67.5t-169.5 185.5t-62 267q0 150 62 267.5t169.5 185t244.5 67.5q98 0 182.5 -35.5t146.5 -98.5v614h287v-1500zM610 237q71 0 128.5 32t92 87.5t34.5 126.5v36q0 71 -34.5 126t-92 86.5t-128.5 31.5
q-73 0 -131 -34t-91.5 -93.5t-33.5 -135.5q0 -75 33.5 -134.5t91.5 -94t131 -34.5z" />
    <glyph glyph-name="e" unicode="e" horiz-adv-x="1166" 
d="M1043 112q-186 -132 -407 -132q-164 0 -294.5 70.5t-206 191.5t-75.5 273q0 145 68.5 259t186.5 180t268 66q155 0 273 -72.5t184 -202t66 -299.5v-32h-737q18 -59 58.5 -103.5t102 -70.5t140.5 -26q153 0 285 99zM356 560h485q-8 65 -40.5 114.5t-85 77.5t-117.5 28
q-66 0 -117.5 -29t-83.5 -78t-41 -113z" />
    <glyph glyph-name="f" unicode="f" horiz-adv-x="921" 
d="M490 0h-287v744h-175v256h175v156q0 108 51 192.5t140.5 133t203.5 48.5q72 0 147 -20.5t148 -64.5l-109 -223q-32 26 -67.5 38.5t-70.5 12.5q-66 0 -111 -46t-45 -127v-100h299v-256h-299v-744z" />
    <glyph glyph-name="g" unicode="g" horiz-adv-x="1256" 
d="M531 -12q-135 0 -242 67.5t-168 184t-61 264.5q0 149 61 265t168 183.5t243 67.5q106 0 194.5 -41.5t152.5 -114.5l13 136h252v-972q0 -166 -72.5 -289.5t-204.5 -191t-309 -67.5q-246 0 -446 154l116 234q133 -131 310 -131q95 0 166.5 38t112 106t40.5 158v82
q-62 -62 -145 -97.5t-181 -35.5zM605 244q70 0 127 30.5t91 85t34 123.5v43q0 69 -34.5 123t-91 84.5t-126.5 30.5q-72 0 -129 -34t-90 -92.5t-33 -133.5t33 -134t90 -92.5t129 -33.5z" />
    <glyph glyph-name="h" unicode="h" 
d="M122 0v1500h287v-618q108 138 310 138q189 0 295 -116.5t106 -325.5v-578h-287v502q0 125 -55 193t-154 68q-101 0 -158 -69t-57 -192v-502h-287z" />
    <glyph glyph-name="i" unicode="i" horiz-adv-x="535" 
d="M267 1239q-57 0 -96 40t-39 97t39 96.5t96 39.5q58 0 97.5 -39.5t39.5 -96.5t-39.5 -97t-97.5 -40zM411 0h-287v1000h287v-1000z" />
    <glyph glyph-name="j" unicode="j" horiz-adv-x="531" 
d="M271 1239q-57 0 -96 40t-39 97t39 96.5t96 39.5t96.5 -39.5t39.5 -96.5t-39.5 -97t-96.5 -40zM-147 -502v226q16 -3 30.5 -4t27.5 -1q101 0 159 65.5t58 181.5v1034h287v-1047q0 -233 -102 -353t-298 -120q-37 0 -77 4.5t-85 13.5z" />
    <glyph glyph-name="k" unicode="k" horiz-adv-x="1228" 
d="M409 0h-287v1500h287v-922l98 118l288 304h359l-423 -445l473 -555h-371l-299 375l-125 -114v-261z" />
    <glyph glyph-name="l" unicode="l" horiz-adv-x="551" 
d="M429 0h-307v1540h307v-1540z" />
    <glyph glyph-name="m" unicode="m" horiz-adv-x="1851" 
d="M1749 0h-287v502q0 125 -49 193t-139 68q-92 0 -143.5 -69t-51.5 -192v-502h-287v502q0 125 -49 193t-140 68t-142.5 -69t-51.5 -192v-502h-287v1000h229l10 -165q50 91 134.5 138t196.5 47q117 0 202 -49t131 -141q51 93 135.5 141.5t200.5 48.5q183 0 285.5 -116.5
t102.5 -325.5v-578z" />
    <glyph glyph-name="n" unicode="n" 
d="M1120 0h-287v520q0 114 -53.5 178t-147.5 64q-66 0 -116.5 -31.5t-78.5 -89t-28 -137.5v-504h-287v1000h232l10 -160q54 88 144 134t208 46q188 0 296 -115.5t108 -316.5v-588z" />
    <glyph glyph-name="o" unicode="o" horiz-adv-x="1191" 
d="M597 -20q-154 0 -276 67.5t-191.5 185t-69.5 267.5q0 149 69.5 266.5t191.5 185.5t276 68t274.5 -68t190 -185.5t69.5 -266.5q0 -150 -69.5 -267.5t-190 -185t-274.5 -67.5zM596 237q69 0 123.5 34.5t86 94t31.5 135.5q0 75 -31.5 134t-86 93.5t-123.5 34.5
q-70 0 -124.5 -34.5t-86 -93.5t-31.5 -134q0 -76 31.5 -135.5t86 -94t124.5 -34.5z" />
    <glyph glyph-name="p" unicode="p" horiz-adv-x="1274" 
d="M410 -500h-288v1500h252l15 -136q64 73 153.5 114.5t195.5 41.5q138 0 245 -67.5t169 -185t62 -267.5q0 -149 -62 -267t-169 -185.5t-245 -67.5q-98 0 -181.5 35.5t-146.5 98.5v-614zM665 238q75 0 132 33.5t89.5 93t32.5 135.5q0 77 -32.5 136t-89.5 93t-131 34
q-70 0 -126 -30.5t-90.5 -84.5t-39.5 -124v-50q5 -68 39 -121.5t90 -84t126 -30.5z" />
    <glyph glyph-name="q" unicode="q" horiz-adv-x="1274" 
d="M1152 -500h-287v614q-63 -63 -147.5 -98.5t-182.5 -35.5q-136 0 -243.5 67.5t-169.5 185.5t-62 267q0 150 62 267.5t169.5 185t243.5 67.5q106 0 196 -41.5t154 -114.5l14 136h253v-1500zM610 238q70 0 125.5 30t89.5 83.5t40 122.5v50q-5 70 -39 124t-89.5 84t-126.5 30
q-74 0 -131.5 -33.5t-90.5 -92.5t-33 -136q0 -76 32.5 -135.5t90.5 -93t132 -33.5z" />
    <glyph glyph-name="r" unicode="r" horiz-adv-x="855" 
d="M409 0h-287v1000h250l10 -173q50 91 136 142t197 51q32 0 64.5 -4.5t66.5 -13.5l-36 -258q-66 19 -125 19q-83 0 -145.5 -37.5t-96.5 -104t-34 -155.5v-466z" />
    <glyph glyph-name="s" unicode="s" horiz-adv-x="894" 
d="M52 86l63 244q30 -33 80.5 -61t109 -44.5t110.5 -16.5q62 0 97 23.5t35 63.5q0 33 -23.5 55.5t-63 40t-87.5 34.5q-65 25 -133.5 58t-115.5 90t-47 151q0 90 47 156.5t133 103t200 36.5q185 0 369 -93l-81 -227q-32 25 -80 46.5t-98.5 34.5t-90.5 13q-49 0 -76.5 -20
t-27.5 -55q0 -26 19 -46.5t56.5 -39t92.5 -39.5q68 -25 137.5 -59.5t117 -92t47.5 -152.5q0 -93 -50.5 -163t-142 -108.5t-214.5 -38.5q-205 0 -383 106z" />
    <glyph glyph-name="t" unicode="t" horiz-adv-x="865" 
d="M821 26q-115 -46 -223 -46q-112 0 -197.5 47.5t-133.5 133t-48 197.5v386h-175v256h190v250h272v-250h277v-256h-277v-334q0 -82 45 -127.5t112 -45.5q61 0 119 38z" />
    <glyph glyph-name="u" unicode="u" 
d="M1100 0h-233l-10 160q-53 -88 -140.5 -134t-204.5 -46q-192 0 -301 118t-109 324v578h287v-512q0 -117 55.5 -183.5t151.5 -66.5q100 0 158.5 69.5t58.5 188.5v504h287v-1000z" />
    <glyph glyph-name="v" unicode="v" horiz-adv-x="1178" 
d="M1136 1000l-408 -1000h-278l-408 1000h307l241 -710l241 710h305z" />
    <glyph glyph-name="w" unicode="w" horiz-adv-x="1678" 
d="M1327 0h-328l-160 617l-160 -617h-328l-323 1000h304l179 -697l202 697h251l203 -700l179 700h304z" />
    <glyph glyph-name="x" unicode="x" horiz-adv-x="1274" 
d="M406 0h-394l428 512l-406 488h396l208 -295l206 295h393l-403 -486l428 -514h-397l-229 325z" />
    <glyph glyph-name="y" unicode="y" horiz-adv-x="1292" 
d="M643 -500h-306l208 501l-505 999h324l317 -672l278 672h305z" />
    <glyph glyph-name="z" unicode="z" horiz-adv-x="1106" 
d="M1046 0h-986v144l499 599h-472v257h924v-122l-518 -621h553v-257z" />
    <glyph glyph-name="braceleft" unicode="{" horiz-adv-x="658" 
d="M616 -289q-202 0 -306 78.5t-104 231.5v331q0 86 -47.5 148.5t-116.5 67.5v115q69 5 116.5 67.5t47.5 148.5v331q0 154 104 232t306 78v-228q-84 0 -122 -33.5t-38 -110.5v-277q0 -90 -44 -160t-120 -105q76 -35 120 -106t44 -161v-276q0 -76 38 -110t122 -34v-228z" />
    <glyph glyph-name="bar" unicode="|" horiz-adv-x="494" 
d="M372 -250h-250v1790h250v-1790z" />
    <glyph glyph-name="braceright" unicode="}" horiz-adv-x="658" 
d="M42 -289v228q85 0 122.5 34.5t37.5 109.5v276q0 90 44 161t120 106q-76 35 -120 105.5t-44 159.5v277q0 77 -37.5 111t-122.5 34v227q203 0 306.5 -78t103.5 -232v-331q0 -86 47.5 -148.5t116.5 -67.5v-115q-69 -5 -116.5 -67.5t-47.5 -148.5v-331q0 -153 -103.5 -231.5
t-306.5 -78.5z" />
    <glyph glyph-name="asciitilde" unicode="~" horiz-adv-x="1286" 
d="M1164 568q-71 -76 -138 -112t-138 -36q-62 0 -121.5 22.5t-117.5 50.5q-59 27 -119 50.5t-124 23.5q-140 0 -284 -144v206q147 144 286 144q58 0 115.5 -20t127.5 -53q58 -27 117.5 -50t121.5 -23q138 0 274 148v-207z" />
    <glyph glyph-name="uni00A0" unicode="&#xa0;" horiz-adv-x="464" 
 />
    <glyph glyph-name="exclamdown" unicode="&#xa1;" horiz-adv-x="483" 
d="M241 754q-58 0 -96.5 39t-38.5 94q0 56 38.5 94.5t96.5 38.5t97.5 -38.5t39.5 -94.5q0 -55 -39.5 -94t-97.5 -39zM358 -500h-235l40 1088h155z" />
    <glyph glyph-name="cent" unicode="&#xa2;" horiz-adv-x="1062" 
d="M1008 299q-58 -68 -141 -113t-182 -59l6 -187h-188l6 186q-131 19 -232.5 89t-159 180t-57.5 245t57.5 245t159 180.5t232.5 88.5l-6 186h188l-6 -187q98 -13 180.5 -57.5t141.5 -112.5l-169 -177q-39 45 -97.5 71t-123.5 26q-75 0 -135 -34t-94 -93t-34 -135
q0 -75 34 -135.5t93.5 -94.5t134.5 -34q66 0 125 26t97 71z" />
    <glyph glyph-name="sterling" unicode="&#xa3;" horiz-adv-x="1235" 
d="M937 666h-370q6 -27 8.5 -53t2.5 -54q0 -87 -26.5 -161.5t-80.5 -140.5h627v-257h-1001v160q119 63 189 162.5t70 225.5q0 28 -4 57.5t-13 60.5h-247v168h193q-27 73 -42 133.5t-15 122.5q0 125 58 222.5t160 152.5t233 55q143 0 265.5 -68.5t198.5 -192.5l-187 -139
q-42 69 -102.5 106.5t-129.5 37.5q-63 0 -111.5 -31t-75.5 -85.5t-27 -126.5q0 -41 6.5 -83.5t23.5 -103.5h397v-168z" />
    <glyph glyph-name="currency" unicode="&#xa4;" horiz-adv-x="1249" 
d="M1156 363l-112 -112l-160 163q-54 -37 -120 -57.5t-140 -20.5t-139.5 20t-120.5 58l-159 -163l-113 113l164 159q-37 54 -57.5 120t-20.5 140q0 73 20 139t57 120l-163 159l113 113l159 -163q55 38 121 58.5t139 20.5q75 0 140 -20.5t120 -58.5l160 164l113 -113
l-164 -160q38 -54 57.5 -119.5t19.5 -138.5q0 -75 -20 -141t-58 -120zM624 525q70 0 124.5 33.5t85.5 92t31 132.5t-31.5 132.5t-85.5 91.5t-124 33q-69 0 -123 -33t-85.5 -91.5t-31.5 -132.5t31 -132.5t85.5 -92t123.5 -33.5z" />
    <glyph glyph-name="yen" unicode="&#xa5;" horiz-adv-x="1304" 
d="M799 0h-293v275h-303v122h303v130h-303v122h299l-476 851h335l290 -626l292 626h335l-471 -851h293v-122h-301v-130h301v-122h-301v-275z" />
    <glyph glyph-name="brokenbar" unicode="&#xa6;" horiz-adv-x="494" 
d="M372 820h-250v720h250v-720zM372 -250h-250v720h250v-720z" />
    <glyph glyph-name="section" unicode="&#xa7;" horiz-adv-x="1060" 
d="M137 3l96 217q55 -35 127.5 -58.5t131.5 -23.5q62 0 98.5 26.5t36.5 70.5q0 38 -26.5 64.5t-71 48t-97.5 42.5q-70 29 -141.5 65.5t-120 95t-48.5 151.5q0 86 45 156.5t126 117.5q-40 26 -72.5 59t-51 75.5t-18.5 98.5q0 94 53.5 166.5t147.5 113.5t216 41q186 0 356 -93
l-98 -217q-54 35 -126.5 58.5t-130.5 23.5q-63 0 -100 -26.5t-37 -71.5q0 -32 22.5 -57t66 -47.5t105.5 -48.5q72 -29 143.5 -66t120 -95.5t48.5 -151.5q0 -86 -45.5 -156.5t-126.5 -117.5q41 -26 73.5 -59t51 -75.5t18.5 -98.5q0 -94 -53.5 -166.5t-147.5 -113.5t-216 -41
q-186 0 -355 93zM649 527q33 23 52 57.5t19 76.5q0 53 -32.5 97t-100.5 82.5t-176 72.5q-33 -23 -52 -57t-19 -75q0 -53 33 -97.5t101.5 -83t174.5 -73.5z" />
    <glyph glyph-name="dieresis" unicode="&#xa8;" horiz-adv-x="916" 
d="M687 1213q-54 0 -87 33t-33 87q0 53 33 86.5t87 33.5t87 -33.5t33 -86.5q0 -54 -33 -87t-87 -33zM230 1213q-54 0 -87 33t-33 87q0 53 33 86.5t87 33.5q53 0 86.5 -33.5t33.5 -86.5q0 -54 -33.5 -87t-86.5 -33z" />
    <glyph glyph-name="copyright" unicode="&#xa9;" horiz-adv-x="1283" 
d="M642 -104q-173 0 -309 77.5t-213.5 213t-77.5 308.5t77.5 308t213.5 212.5t309 77.5t308.5 -77.5t213 -212.5t77.5 -308t-77.5 -308.5t-213 -213t-308.5 -77.5zM642 43q130 0 231.5 58.5t159.5 160.5t58 232t-58.5 232.5t-160 161t-230.5 58.5t-231 -58.5t-160.5 -161
t-58.5 -232.5t58.5 -232t160.5 -160.5t231 -58.5zM907 261q-100 -93 -248 -93q-97 0 -173.5 42.5t-120 116.5t-43.5 168q0 95 43.5 168.5t119.5 116t174 42.5q147 0 248 -94l-97 -101q-25 29 -61.5 44.5t-80.5 15.5q-83 0 -136 -54t-53 -139q0 -84 53 -137.5t136 -53.5
q44 0 81 15.5t62 44.5z" />
    <glyph glyph-name="ordfeminine" unicode="&#xaa;" horiz-adv-x="817" 
d="M695 810h-151l-7 95q-35 -51 -90.5 -78t-124.5 -27q-108 0 -179 59.5t-71 149.5q0 64 37.5 115t102 80t146.5 29q45 0 88.5 -9.5t83.5 -27.5v13q0 72 -44.5 113.5t-121.5 41.5q-48 0 -95.5 -16.5t-87.5 -45.5l-71 130q121 88 276 88q143 0 226 -73.5t83 -200.5v-436z
M364 933q45 0 83 18t60.5 47.5t22.5 65.5v34q-60 42 -137 42q-67 0 -110 -31t-43 -79q0 -43 34.5 -70t89.5 -27z" />
    <glyph glyph-name="guillemotleft" unicode="&#xab;" horiz-adv-x="1204" 
d="M633 111h-268l-323 386l323 385h268l-337 -386zM1082 111h-267l-323 386l323 385h267l-337 -386z" />
    <glyph glyph-name="logicalnot" unicode="&#xac;" horiz-adv-x="1057" 
d="M935 75h-250v308h-563v228h813v-536z" />
    <glyph glyph-name="uni00AD" unicode="&#xad;" horiz-adv-x="1121" 
d="M999 374h-877v227h877v-227z" />
    <glyph glyph-name="registered" unicode="&#xae;" horiz-adv-x="1283" 
d="M642 424q-173 0 -309 77.5t-213.5 213t-77.5 308.5t77.5 308t213.5 212.5t309 77.5t308.5 -77.5t213 -212.5t77.5 -308t-77.5 -308.5t-213 -213t-308.5 -77.5zM642 571q130 0 231.5 58t159.5 160t58 232q0 131 -58.5 233t-160 161.5t-230.5 59.5t-231 -59t-160.5 -161.5
t-58.5 -233.5q0 -130 58.5 -231.5t160.5 -160t231 -58.5zM907 701h-156l-123 247h-75v-245h-140v642h247q105 0 167 -54t62 -145q0 -64 -31.5 -110.5t-88.5 -68.5zM553 1066h77q58 0 87 20.5t29 61.5q0 40 -29 59.5t-87 19.5h-77v-161z" />
    <glyph glyph-name="macron" unicode="&#xaf;" horiz-adv-x="922" 
d="M800 1252h-678v163h678v-163z" />
    <glyph glyph-name="degree" unicode="&#xb0;" horiz-adv-x="674" 
d="M337 930q-86 0 -152.5 38t-104.5 105t-38 152q0 86 38 152.5t104.5 104.5t152.5 38q85 0 151.5 -38t105 -104.5t38.5 -152.5q0 -85 -38.5 -152t-105 -105t-151.5 -38zM337 1082q58 0 96 40.5t38 102.5t-38 102.5t-96 40.5q-60 0 -97.5 -40.5t-37.5 -102.5t37.5 -102.5
t97.5 -40.5z" />
    <glyph glyph-name="plusminus" unicode="&#xb1;" horiz-adv-x="1121" 
d="M686 302h-251v312h-313v227h313v307h251v-307h313v-227h-313v-312zM999 0h-877v220h877v-220z" />
    <glyph glyph-name="twosuperior" unicode="&#xb2;" horiz-adv-x="730" 
d="M618 790h-454v89q109 98 173 168t92.5 124.5t28.5 100.5q0 53 -30.5 85.5t-80.5 32.5q-41 0 -81 -23t-66 -62l-78 94q44 56 112.5 88.5t141.5 32.5q103 0 169.5 -63t66.5 -163q0 -60 -27 -122t-80 -124.5t-132 -125.5h245v-132z" />
    <glyph glyph-name="threesuperior" unicode="&#xb3;" horiz-adv-x="698" 
d="M112 867l58 110q76 -57 148 -57q49 0 81 28t32 70q0 46 -40.5 71t-112.5 25h-33v105h33q58 0 97 27t39 66q0 34 -27.5 56t-69.5 22q-60 0 -126 -51l-67 104q86 77 207 77q97 0 160.5 -51t63.5 -131q0 -55 -31.5 -99t-83.5 -68q68 -20 107 -65.5t39 -109.5q0 -88 -72 -147
t-182 -59q-125 0 -220 77z" />
    <glyph glyph-name="acute" unicode="&#xb4;" horiz-adv-x="516" 
d="M266 1162h-204l142 338h260z" />
    <glyph glyph-name="mu" unicode="&#xb5;" horiz-adv-x="1305" 
d="M1269 -20q-119 0 -201 37t-128 112q-52 -71 -130 -110t-174 -39q-151 0 -240 101v-581h-272v1500h285v-502q0 -120 57 -190.5t152 -70.5q96 0 151.5 70.5t55.5 190.5v502h287v-639q0 -171 173 -171z" />
    <glyph glyph-name="paragraph" unicode="&#xb6;" horiz-adv-x="1317" 
d="M1195 -150h-199v1452h-165v-1452h-198v794q-159 0 -278.5 55t-186 153.5t-66.5 230.5q0 128 64 221.5t181 144.5t278 51h570v-1650z" />
    <glyph glyph-name="periodcentered" unicode="&#xb7;" horiz-adv-x="485" 
d="M242 394q-60 0 -98 37.5t-38 98.5t38 98.5t98 37.5q61 0 98.5 -37.5t37.5 -98.5t-37.5 -98.5t-98.5 -37.5z" />
    <glyph glyph-name="cedilla" unicode="&#xb8;" horiz-adv-x="551" 
d="M92 -393l42 112q39 -19 81 -19q45 0 74 23.5t29 59.5q0 37 -30.5 60t-86.5 23h-11t-12 -1l55 142h105l-44 -99q74 -8 118.5 -49t44.5 -106q0 -77 -61.5 -127.5t-156.5 -50.5q-72 0 -147 32z" />
    <glyph glyph-name="onesuperior" unicode="&#xb9;" horiz-adv-x="492" 
d="M370 780h-160v570l-121 -44l-47 121l199 73h129v-720z" />
    <glyph glyph-name="ordmasculine" unicode="&#xba;" horiz-adv-x="809" 
d="M405 800q-104 0 -186.5 47t-129.5 128.5t-47 184.5q0 104 47 185.5t129.5 128t187.5 46.5q104 0 185.5 -46.5t128.5 -127.5t47 -186q0 -104 -47 -185.5t-128.5 -128t-186.5 -46.5zM406 948q57 0 101.5 27.5t70 75.5t25.5 109q0 62 -25.5 110t-70 75t-101.5 27
q-58 0 -103 -27.5t-71 -75.5t-26 -109t26 -109t71 -75.5t103 -27.5z" />
    <glyph glyph-name="guillemotright" unicode="&#xbb;" horiz-adv-x="1204" 
d="M390 111h-268l337 385l-337 386h268l323 -385zM839 111h-267l337 385l-337 386h267l323 -385z" />
    <glyph glyph-name="onequarter" unicode="&#xbc;" horiz-adv-x="1643" 
d="M405 0h-181l1023 1540h174zM420 780h-160v570l-121 -44l-47 121l199 73h129v-720zM1464 0h-152v146h-343v116l345 458h150v-441h87v-133h-87v-146zM1104 279h208v276z" />
    <glyph glyph-name="onehalf" unicode="&#xbd;" horiz-adv-x="1688" 
d="M405 0h-181l1023 1540h174zM420 780h-160v570l-121 -44l-47 121l199 73h129v-720zM1596 0h-462v87q113 102 178.5 172.5t93.5 123t28 100.5q0 56 -30 89.5t-78 33.5q-76 0 -129 -79l-79 98q42 55 105.5 85t130.5 30q98 0 167.5 -61t69.5 -167q0 -65 -29 -129.5
t-82.5 -126.5t-128.5 -121h245v-135z" />
    <glyph glyph-name="threequarters" unicode="&#xbe;" horiz-adv-x="1645" 
d="M407 0h-180l1023 1540h173zM92 861l58 111q75 -55 141 -55q49 0 80 27t31 69q0 46 -39.5 72.5t-108.5 26.5h-29v106h25q59 0 97 26t38 66q0 33 -26.5 55.5t-66.5 22.5q-55 0 -122 -47l-66 104q87 75 203 75q96 0 158.5 -50.5t62.5 -129.5q0 -56 -32.5 -102t-87.5 -70
q71 -20 111.5 -67t40.5 -111q0 -88 -72.5 -146.5t-180.5 -58.5q-121 0 -215 76zM1467 0h-153v146h-343v116l345 458h151v-441h86v-133h-86v-146zM1106 279h208v276z" />
    <glyph glyph-name="questiondown" unicode="&#xbf;" horiz-adv-x="935" 
d="M562 1030q61 0 98.5 -37.5t37.5 -98.5t-37.5 -98.5t-98.5 -37.5t-98.5 37.5t-37.5 98.5t37.5 98.5t98.5 37.5zM779 -149l114 -233q-184 -138 -406 -138q-126 0 -219.5 43.5t-144.5 123.5t-51 190q0 77 23 132.5t61 100t80 86.5q49 50 95.5 107t77 137t30.5 198h246
q0 -146 -31.5 -241.5t-76.5 -158.5t-88 -110q-44 -49 -75 -93.5t-31 -104.5q0 -71 46 -114t123 -43q64 0 124 31.5t103 86.5z" />
    <glyph glyph-name="Agrave" unicode="&#xc0;" horiz-adv-x="1568" 
d="M882 1662h-205l-198 338h261zM347 0h-323l598 1500h325l597 -1500h-323l-123 322h-628zM571 592h427l-214 556z" />
    <glyph glyph-name="Aacute" unicode="&#xc1;" horiz-adv-x="1568" 
d="M897 1662h-204l142 338h261zM347 0h-323l598 1500h325l597 -1500h-323l-123 322h-628zM571 592h427l-214 556z" />
    <glyph glyph-name="Acircumflex" unicode="&#xc2;" horiz-adv-x="1568" 
d="M1121 1662h-211l-126 221l-126 -221h-211l220 338h235zM347 0h-323l598 1500h325l597 -1500h-323l-123 322h-628zM571 592h427l-214 556z" />
    <glyph glyph-name="Atilde" unicode="&#xc3;" horiz-adv-x="1568" 
d="M1160 1967q-4 -126 -58.5 -191.5t-157.5 -65.5q-62 0 -104 21.5t-81 49.5q-28 22 -58.5 38t-69.5 16q-105 0 -115 -117h-107q8 259 218 259q68 0 113 -22.5t80 -48.5q31 -22 61 -38t67 -16q95 0 105 115h107zM347 0h-323l598 1500h325l597 -1500h-323l-123 322h-628z
M571 592h427l-214 556z" />
    <glyph glyph-name="Adieresis" unicode="&#xc4;" horiz-adv-x="1568" 
d="M347 0h-323l598 1500h325l597 -1500h-323l-123 322h-628zM571 592h427l-214 556zM1014 1713q-54 0 -87 33t-33 87q0 53 33 86.5t87 33.5t87 -33.5t33 -86.5q0 -54 -33 -87t-87 -33zM557 1713q-54 0 -87 33t-33 87q0 53 33 86.5t87 33.5q53 0 86.5 -33.5t33.5 -86.5
q0 -54 -33.5 -87t-86.5 -33z" />
    <glyph glyph-name="Aring" unicode="&#xc5;" horiz-adv-x="1569" 
d="M784 1580q-100 0 -161.5 59t-61.5 156q0 96 61.5 155.5t161.5 59.5t161 -59.5t61 -155.5q0 -97 -61 -156t-161 -59zM784 1694q45 0 72 27.5t27 73.5q0 45 -27 72.5t-72 27.5t-72 -27.5t-27 -72.5t27 -73t72 -28zM347 0h-323l598 1500h325l598 -1500h-324l-123 322h-628z
M571 592h427l-214 556z" />
    <glyph glyph-name="AE" unicode="&#xc6;" horiz-adv-x="2223" 
d="M2151 0h-962l-42 312h-615l-162 -312h-350l802 1500h1124l37 -269h-652l47 -342h617l37 -269h-618l48 -351h652zM672 582h438l-91 667h-4z" />
    <glyph glyph-name="Ccedilla" unicode="&#xc7;" horiz-adv-x="1500" 
d="M1422 188q-95 -92 -222 -148.5t-276 -67.5l-29 -64q74 -8 118.5 -49t44.5 -106q0 -77 -61 -127.5t-157 -50.5q-72 0 -147 32l43 112q39 -19 80 -19q45 0 74 23.5t29 59.5q0 37 -30.5 60t-86.5 23h-11t-12 -1l41 106q-162 7 -299.5 68t-238.5 165.5t-156.5 243.5
t-55.5 302q0 168 59 310.5t165.5 247.5t250.5 163.5t315 58.5q168 0 311.5 -58t248.5 -161l-215 -216q-63 77 -153.5 121.5t-196.5 44.5q-101 0 -186.5 -38.5t-149.5 -108t-99 -162.5t-35 -201q0 -110 35 -203t99 -162.5t149.5 -108t186.5 -38.5q106 0 196 44.5t153 121.5z
" />
    <glyph glyph-name="Egrave" unicode="&#xc8;" horiz-adv-x="1212" 
d="M740 1662h-204l-198 338h260zM122 0v1500h968v-269h-660v-341h619v-270h-619v-351h670v-269h-978z" />
    <glyph glyph-name="Eacute" unicode="&#xc9;" horiz-adv-x="1212" 
d="M687 1662h-203l141 338h260zM122 0v1500h968v-269h-660v-341h619v-270h-619v-351h670v-269h-978z" />
    <glyph glyph-name="Ecircumflex" unicode="&#xca;" horiz-adv-x="1212" 
d="M949 1662h-212l-126 221l-125 -221h-212l221 338h234zM122 0v1500h968v-269h-660v-341h619v-270h-619v-351h670v-269h-978z" />
    <glyph glyph-name="Edieresis" unicode="&#xcb;" horiz-adv-x="1212" 
d="M122 0v1500h968v-269h-660v-341h619v-270h-619v-351h670v-269h-978zM835 1713q-54 0 -87 33t-33 87q0 53 33 86.5t87 33.5t87 -33.5t33 -86.5q0 -54 -33 -87t-87 -33zM378 1713q-54 0 -87 33t-33 87q0 53 33 86.5t87 33.5q53 0 86.5 -33.5t33.5 -86.5q0 -54 -33.5 -87
t-86.5 -33z" />
    <glyph glyph-name="Igrave" unicode="&#xcc;" horiz-adv-x="552" 
d="M386 1662l-142 338h-260l198 -338h204zM430 1500h-308v-1500h308v1500z" />
    <glyph glyph-name="Iacute" unicode="&#xcd;" horiz-adv-x="552" 
d="M381 1662l198 338h-260l-142 -338h204zM430 1500h-308v-1500h308v1500z" />
    <glyph glyph-name="Icircumflex" unicode="&#xce;" horiz-adv-x="553" 
d="M614 1662l-221 338h-233l-221 -338h211l126 221l126 -221h212zM431 1500h-308v-1500h308v1500z" />
    <glyph glyph-name="Idieresis" unicode="&#xcf;" horiz-adv-x="552" 
d="M430 1500h-308v-1500h308v1500zM505 1713q-54 0 -87 33t-33 87q0 53 33 86.5t87 33.5t87 -33.5t33 -86.5q0 -54 -33 -87t-87 -33zM48 1713q-54 0 -87 33t-33 87q0 53 33 86.5t87 33.5q53 0 86.5 -33.5t33.5 -86.5q0 -54 -33.5 -87t-86.5 -33z" />
    <glyph glyph-name="Eth" unicode="&#xd0;" horiz-adv-x="1614" 
d="M193 0v635h-181v220h181v645h491q272 0 471 -92t308 -260t109 -398q0 -229 -109 -397.5t-308 -260.5t-471 -92h-491zM812 635h-311v-366h194q180 0 305.5 56.5t191 164t65.5 260.5q0 154 -65.5 261t-191 163.5t-305.5 56.5h-194v-376h311v-220z" />
    <glyph glyph-name="Ntilde" unicode="&#xd1;" horiz-adv-x="1607" 
d="M1195 1967q-3 -126 -57.5 -191.5t-156.5 -65.5q-63 0 -104.5 21t-79.5 49q-30 22 -60 38.5t-70 16.5q-105 0 -115 -117h-107q7 259 218 259q68 0 112.5 -23t81.5 -49q31 -20 60 -36.5t66 -16.5q96 0 106 115h106zM1485 0h-354l-701 1024v-1024h-308v1500h354l701 -1026
v1026h308v-1500z" />
    <glyph glyph-name="Ograve" unicode="&#xd2;" horiz-adv-x="1718" 
d="M980 1662h-204l-198 338h260zM860 -30q-171 0 -315.5 58.5t-251 164t-165 247.5t-58.5 310t58.5 310.5t165 248t251 163.5t315.5 58t315 -58.5t249.5 -163.5t164.5 -247t59 -311q0 -168 -58.5 -310.5t-164.5 -247.5t-250 -163.5t-315 -58.5zM860 239q101 0 187.5 39
t150.5 108.5t99.5 162t35.5 201.5t-35.5 202t-99.5 162.5t-150.5 108t-187.5 38.5q-102 0 -188.5 -38.5t-151 -108t-100 -162.5t-35.5 -202t35.5 -202t100 -162.5t151 -108t188.5 -38.5z" />
    <glyph glyph-name="Oacute" unicode="&#xd3;" horiz-adv-x="1718" 
d="M942 1662h-203l141 338h261zM860 -30q-171 0 -315 58.5t-251 163.5t-165.5 247.5t-58.5 310.5q0 169 58.5 311t165.5 247.5t251 163.5t315 58t315 -58.5t250 -163.5t164.5 -247t58.5 -311q0 -168 -58.5 -310t-164.5 -247.5t-250 -164t-315 -58.5zM860 239q101 0 187.5 39
t150.5 108.5t99.5 162t35.5 201.5t-35.5 202t-99.5 162.5t-150.5 108t-187.5 38.5q-102 0 -188.5 -38.5t-151 -108t-100 -162.5t-35.5 -202t35.5 -202t100 -162.5t151 -108t188.5 -38.5z" />
    <glyph glyph-name="Ocircumflex" unicode="&#xd4;" horiz-adv-x="1718" 
d="M1196 1662h-211l-126 221l-126 -221h-211l220 338h234zM860 -30q-171 0 -315 58.5t-251 163.5t-165.5 247.5t-58.5 310.5q0 169 58.5 311t165.5 247.5t251 163.5t315 58t315 -58.5t250 -163.5t164.5 -247t58.5 -311q0 -168 -58.5 -310t-164.5 -247.5t-250 -164
t-315 -58.5zM860 239q101 0 187.5 39t150.5 108.5t99.5 162t35.5 201.5t-35.5 202t-99.5 162.5t-150.5 108t-187.5 38.5q-102 0 -188.5 -38.5t-151 -108t-100 -162.5t-35.5 -202t35.5 -202t100 -162.5t151 -108t188.5 -38.5z" />
    <glyph glyph-name="Otilde" unicode="&#xd5;" horiz-adv-x="1718" 
d="M1234 1967q-3 -126 -57.5 -191.5t-157.5 -65.5q-62 0 -104.5 21.5t-80.5 49.5q-28 22 -58.5 38t-70.5 16q-104 0 -115 -117h-106q7 259 217 259q68 0 113 -22.5t81 -48.5q31 -22 60.5 -38t66.5 -16q95 0 106 115h106zM860 -30q-171 0 -315.5 58.5t-251 164t-165 247.5
t-58.5 310t58.5 310.5t165 248t251 163.5t315.5 58t315 -58.5t249.5 -163.5t164.5 -247t59 -311q0 -168 -58.5 -310.5t-164.5 -247.5t-250 -163.5t-315 -58.5zM860 239q101 0 187.5 39t150.5 108.5t99.5 162t35.5 201.5t-35.5 202t-99.5 162.5t-150.5 108t-187.5 38.5
q-102 0 -188.5 -38.5t-151 -108t-100 -162.5t-35.5 -202t35.5 -202t100 -162.5t151 -108t188.5 -38.5z" />
    <glyph glyph-name="Odieresis" unicode="&#xd6;" horiz-adv-x="1718" 
d="M860 -30q-171 0 -315.5 58.5t-251 164t-165 247.5t-58.5 310t58.5 310.5t165 248t251 163.5t315.5 58t315 -58.5t249.5 -163.5t164.5 -247t59 -311q0 -168 -58.5 -310.5t-164.5 -247.5t-250 -163.5t-315 -58.5zM860 239q101 0 187.5 39t150.5 108.5t99.5 162t35.5 201.5
t-35.5 202t-99.5 162.5t-150.5 108t-187.5 38.5q-102 0 -188.5 -38.5t-151 -108t-100 -162.5t-35.5 -202t35.5 -202t100 -162.5t151 -108t188.5 -38.5zM1088 1713q-54 0 -87 33t-33 87q0 53 33 86.5t87 33.5t87 -33.5t33 -86.5q0 -54 -33 -87t-87 -33zM631 1713
q-54 0 -87 33t-33 87q0 53 33 86.5t87 33.5q53 0 86.5 -33.5t33.5 -86.5q0 -54 -33.5 -87t-86.5 -33z" />
    <glyph glyph-name="multiply" unicode="&#xd7;" horiz-adv-x="1078" 
d="M819 49l-280 281l-280 -281l-161 161l280 280l-280 280l161 161l279 -280l281 280l161 -161l-280 -280l280 -280z" />
    <glyph glyph-name="Oslash" unicode="&#xd8;" horiz-adv-x="1717" 
d="M590 -91l-127 56l35 84q-130 62 -226 165.5t-149 240t-53 295.5q0 168 58.5 310.5t165 247.5t251 163.5t315.5 58.5q63 0 123 -8.5t116 -24.5l37 88l126 -50l-36 -87q129 -62 223 -166t146 -239t52 -293q0 -168 -58.5 -310t-164 -247.5t-249.5 -164t-315 -58.5
q-62 0 -120 8t-113 23zM608 315l385 926q-31 10 -65 15t-69 5q-101 0 -188 -38.5t-151 -108t-99.5 -162.5t-35.5 -202q0 -94 27.5 -177t78 -149t117.5 -109zM859 239q102 0 188 39t150 108.5t99.5 162t35.5 201.5q0 94 -26.5 175.5t-75 146.5t-114.5 109l-383 -924
q31 -9 62 -13.5t64 -4.5z" />
    <glyph glyph-name="Ugrave" unicode="&#xd9;" horiz-adv-x="1554" 
d="M899 1662h-205l-197 338h260zM1432 1500v-825q0 -220 -78.5 -378t-225 -242.5t-351.5 -84.5q-204 0 -351 84.5t-225.5 242.5t-78.5 378v825h308v-787q0 -157 39.5 -262t116.5 -158.5t191 -53.5t191 53.5t116.5 158.5t39.5 262v787h308z" />
    <glyph glyph-name="Uacute" unicode="&#xda;" horiz-adv-x="1554" 
d="M861 1662h-204l141 338h261zM1432 1500v-825q0 -220 -78.5 -378t-225 -242.5t-351.5 -84.5q-204 0 -351 84.5t-225.5 242.5t-78.5 378v825h308v-787q0 -157 39.5 -262t116.5 -158.5t191 -53.5t191 53.5t116.5 158.5t39.5 262v787h308z" />
    <glyph glyph-name="Ucircumflex" unicode="&#xdb;" horiz-adv-x="1554" 
d="M1114 1662h-211l-126 221l-126 -221h-210l219 338h235zM1432 1500v-825q0 -220 -78.5 -378t-225 -242.5t-351.5 -84.5q-204 0 -351 84.5t-225.5 242.5t-78.5 378v825h308v-787q0 -157 39.5 -262t116.5 -158.5t191 -53.5t191 53.5t116.5 158.5t39.5 262v787h308z" />
    <glyph glyph-name="Udieresis" unicode="&#xdc;" horiz-adv-x="1554" 
d="M1432 1500v-825q0 -220 -78.5 -378t-225 -242.5t-351.5 -84.5q-204 0 -351 84.5t-225.5 242.5t-78.5 378v825h308v-787q0 -157 39.5 -262t116.5 -158.5t191 -53.5t191 53.5t116.5 158.5t39.5 262v787h308zM1006 1713q-54 0 -87 33t-33 87q0 53 33 86.5t87 33.5t87 -33.5
t33 -86.5q0 -54 -33 -87t-87 -33zM549 1713q-54 0 -87 33t-33 87q0 53 33 86.5t87 33.5q53 0 86.5 -33.5t33.5 -86.5q0 -54 -33.5 -87t-86.5 -33z" />
    <glyph glyph-name="Yacute" unicode="&#xdd;" horiz-adv-x="1475" 
d="M821 1662h-204l142 338h261zM891 0h-308v641l-567 859h374l346 -588l349 588h374l-568 -860v-640z" />
    <glyph glyph-name="Thorn" unicode="&#xde;" horiz-adv-x="1230" 
d="M410 0h-288v1500h288v-300h212q154 0 267.5 -55t176 -155t62.5 -237t-63 -239t-176.5 -158t-266.5 -56h-212v-300zM410 556h152q135 0 203.5 49.5t68.5 144.5t-69 144t-203 49h-152v-387z" />
    <glyph glyph-name="germandbls" unicode="&#xdf;" horiz-adv-x="1243" 
d="M430 0h-308v1086q0 133 61.5 232.5t171 155.5t254.5 56q144 0 254 -49.5t172.5 -137t62.5 -201.5q0 -76 -26 -127t-62.5 -85t-71.5 -59q-30 -22 -51.5 -42t-21.5 -45q0 -26 25.5 -45t71.5 -47q38 -22 75 -48t67.5 -60t48.5 -81.5t18 -112.5q0 -123 -69 -215.5
t-193 -143.5t-289 -51l-56 262q94 0 163 26.5t106.5 75.5t37.5 113q0 51 -21.5 85t-53.5 57t-67 43q-45 26 -80.5 55.5t-35.5 81.5q0 42 23.5 67.5t55.5 50.5q26 19 50 41t40 54.5t16 80.5q0 57 -22.5 99t-63.5 65.5t-95 23.5q-87 0 -137 -62.5t-50 -173.5v-1025z" />
    <glyph glyph-name="agrave" unicode="&#xe0;" horiz-adv-x="1116" 
d="M689 1162h-204l-198 338h260zM1014 0h-250l-15 119q-55 -66 -136 -102.5t-178 -36.5q-105 0 -187 40.5t-129 112t-47 162.5q0 96 51 169t140.5 114.5t203.5 41.5q67 0 134.5 -15t125.5 -42v26q0 60 -33.5 103.5t-92 67.5t-132.5 24q-67 0 -134.5 -22t-124.5 -66l-78 219
q101 52 204.5 78.5t200.5 26.5q146 0 253 -57.5t165.5 -162t58.5 -247.5v-553zM496 201q60 0 112.5 27t85 70.5t32.5 94.5v3q-42 30 -95 46.5t-109 16.5q-84 0 -136 -36t-52 -93q0 -37 21.5 -66.5t58 -46t82.5 -16.5z" />
    <glyph glyph-name="aacute" unicode="&#xe1;" horiz-adv-x="1116" 
d="M649 1162h-204l142 338h260zM1014 0h-250l-15 119q-55 -66 -136 -102.5t-178 -36.5q-105 0 -187 40.5t-129 112t-47 162.5q0 96 51 169t140.5 114.5t203.5 41.5q67 0 134.5 -15t125.5 -42v26q0 60 -33.5 103.5t-92 67.5t-132.5 24q-67 0 -134.5 -22t-124.5 -66l-78 219
q101 52 204.5 78.5t200.5 26.5q146 0 253 -57.5t165.5 -162t58.5 -247.5v-553zM496 201q60 0 112.5 27t85 70.5t32.5 94.5v3q-42 30 -95 46.5t-109 16.5q-84 0 -136 -36t-52 -93q0 -37 21.5 -66.5t58 -46t82.5 -16.5z" />
    <glyph glyph-name="acircumflex" unicode="&#xe2;" horiz-adv-x="1116" 
d="M899 1162h-212l-126 221l-125 -221h-211l220 338h234zM1014 0h-250l-15 119q-55 -66 -136 -102.5t-178 -36.5q-105 0 -187 40.5t-129 112t-47 162.5q0 96 51 169t140.5 114.5t203.5 41.5q67 0 134.5 -15t125.5 -42v26q0 60 -33.5 103.5t-92 67.5t-132.5 24
q-67 0 -134.5 -22t-124.5 -66l-78 219q101 52 204.5 78.5t200.5 26.5q146 0 253 -57.5t165.5 -162t58.5 -247.5v-553zM496 201q60 0 112.5 27t85 70.5t32.5 94.5v3q-42 30 -95 46.5t-109 16.5q-84 0 -136 -36t-52 -93q0 -37 21.5 -66.5t58 -46t82.5 -16.5z" />
    <glyph glyph-name="atilde" unicode="&#xe3;" horiz-adv-x="1116" 
d="M933 1467q-3 -126 -57.5 -191.5t-157.5 -65.5q-62 0 -104 21.5t-81 49.5q-28 22 -58.5 38t-70.5 16q-104 0 -114 -117h-107q7 259 218 259q68 0 112.5 -22.5t80.5 -48.5q31 -22 61 -38t67 -16q95 0 105 115h106zM1014 0h-250l-15 119q-55 -66 -136 -102.5t-178 -36.5
q-105 0 -187 40.5t-129 112t-47 162.5q0 96 51 169t140.5 114.5t203.5 41.5q67 0 134.5 -15t125.5 -42v26q0 60 -33.5 103.5t-92 67.5t-132.5 24q-67 0 -134.5 -22t-124.5 -66l-78 219q101 52 204.5 78.5t200.5 26.5q146 0 253 -57.5t165.5 -162t58.5 -247.5v-553zM496 201
q60 0 112 27t84.5 70.5t33.5 94.5v3q-42 30 -95 46.5t-109 16.5q-84 0 -136 -36t-52 -93q0 -37 21.5 -66.5t58 -46t82.5 -16.5z" />
    <glyph glyph-name="adieresis" unicode="&#xe4;" horiz-adv-x="1116" 
d="M1014 0h-250l-15 119q-55 -66 -136 -102.5t-178 -36.5q-105 0 -187 40.5t-129 112t-47 162.5q0 96 51 169t140.5 114.5t203.5 41.5q67 0 134.5 -15t125.5 -42v26q0 60 -33.5 103.5t-92 67.5t-130.5 24q-69 0 -136.5 -22t-124.5 -66l-78 219q101 52 204.5 78.5t200.5 26.5
q146 0 253 -57.5t165.5 -162t58.5 -247.5v-553zM498 201q57 0 109 25t84.5 68t34.5 95v7q-44 30 -97.5 46.5t-108.5 16.5q-82 0 -134 -36t-52 -93q0 -37 21.5 -66.5t58.5 -46t84 -16.5zM807 1213q-54 0 -87 33t-33 87q0 53 33 86.5t87 33.5t87 -33.5t33 -86.5q0 -54 -33 -87
t-87 -33zM350 1213q-54 0 -87 33t-33 87q0 53 33 86.5t87 33.5q53 0 86.5 -33.5t33.5 -86.5q0 -54 -33.5 -87t-86.5 -33z" />
    <glyph glyph-name="aring" unicode="&#xe5;" horiz-adv-x="1116" 
d="M562 1090q-100 0 -161 59.5t-61 155.5q0 97 61 156t161 59t161 -59t61 -156q0 -96 -61 -155.5t-161 -59.5zM562 1205q45 0 72.5 27.5t27.5 72.5t-27.5 73t-72.5 28t-72 -28t-27 -73t27 -72.5t72 -27.5zM1014 0h-250l-15 119q-55 -66 -136 -102.5t-178 -36.5
q-105 0 -187 40.5t-129 112t-47 162.5q0 96 51 169t140.5 114.5t203.5 41.5q67 0 134.5 -15t125.5 -42v26q0 60 -33.5 103.5t-92 67.5t-132.5 24q-67 0 -134.5 -22t-124.5 -66l-78 219q101 52 204.5 78.5t200.5 26.5q146 0 253 -57.5t165.5 -162t58.5 -247.5v-553zM496 201
q60 0 112.5 27t85 70.5t32.5 94.5v3q-42 30 -95 46.5t-109 16.5q-84 0 -136 -36t-52 -93q0 -37 21.5 -66.5t58 -46t82.5 -16.5z" />
    <glyph glyph-name="ae" unicode="&#xe6;" horiz-adv-x="1821" 
d="M1699 111q-174 -131 -388 -131q-133 0 -246 53t-188 148q-39 -63 -99 -108t-136.5 -69t-165.5 -24q-118 0 -209 41t-143 114t-52 167q0 95 53.5 169.5t147.5 117.5t214 43q138 0 259 -60l-2 8q-16 88 -90.5 141t-183.5 53q-146 0 -276 -88l-74 229q94 52 189 78.5
t185 26.5q124 0 220.5 -48t154.5 -138q70 89 173 137.5t224 48.5q148 0 259.5 -71.5t173.5 -200t62 -298.5v-31h-736q19 -61 61.5 -106.5t103.5 -70t134 -24.5q153 0 287 100zM1012 551h484q-9 63 -42 110.5t-84 74t-116 26.5q-64 0 -115.5 -26.5t-84.5 -73.5t-42 -111z
M753 402q-39 33 -95.5 51t-119.5 18q-61 0 -107 -17t-71.5 -47.5t-25.5 -71.5q0 -38 23.5 -69t65 -48t96.5 -17q59 0 108.5 20.5t82 60t39.5 94.5z" />
    <glyph glyph-name="ccedilla" unicode="&#xe7;" horiz-adv-x="1062" 
d="M1008 159q-65 -77 -157.5 -122t-203.5 -55l-34 -74q74 -8 118.5 -49t44.5 -106q0 -77 -61.5 -127.5t-156.5 -50.5q-72 0 -147 32l42 112q39 -19 81 -19q45 0 74 23.5t29 59.5q0 37 -30.5 60t-86.5 23h-11t-12 -1l46 117q-141 13 -250 82.5t-171 182t-62 253.5
q0 150 69.5 267.5t191 185t275.5 67.5q126 0 232 -47t179 -130l-169 -177q-39 45 -98.5 70.5t-124.5 25.5q-75 0 -134 -33.5t-93 -92t-34 -134.5q0 -77 34 -137t93 -93.5t134 -33.5q65 0 125 25.5t98 70.5z" />
    <glyph glyph-name="egrave" unicode="&#xe8;" horiz-adv-x="1166" 
d="M1043 112q-186 -132 -407 -132q-164 0 -294.5 70.5t-206 191.5t-75.5 273q0 145 68.5 259t186.5 180t268 66q155 0 273 -72.5t184 -202t66 -299.5v-32h-737q18 -59 58.5 -103.5t102 -70.5t140.5 -26q153 0 285 99zM356 560h485q-8 65 -40.5 114.5t-85 77.5t-117.5 28
q-66 0 -117.5 -29t-83.5 -78t-41 -113zM714 1162h-204l-198 338h260z" />
    <glyph glyph-name="eacute" unicode="&#xe9;" horiz-adv-x="1166" 
d="M1043 112q-186 -132 -407 -132q-164 0 -294.5 70.5t-206 191.5t-75.5 273q0 145 68.5 259t186.5 180t268 66q155 0 273 -72.5t184 -202t66 -299.5v-32h-737q18 -59 58.5 -103.5t102 -70.5t140.5 -26q153 0 285 99zM356 560h485q-8 65 -40.5 114.5t-85 77.5t-117.5 28
q-66 0 -117.5 -29t-83.5 -78t-41 -113zM686 1162h-204l142 338h260z" />
    <glyph glyph-name="ecircumflex" unicode="&#xea;" horiz-adv-x="1166" 
d="M1043 112q-186 -132 -407 -132q-164 0 -294.5 70.5t-206 191.5t-75.5 273q0 145 68.5 259t186.5 180t268 66q155 0 273 -72.5t184 -202t66 -299.5v-32h-737q18 -59 58.5 -103.5t102 -70.5t140.5 -26q153 0 285 99zM356 560h485q-8 65 -40.5 114.5t-85 77.5t-117.5 28
q-66 0 -117.5 -29t-83.5 -78t-41 -113zM920 1162h-211l-126 221l-126 -221h-211l220 338h234z" />
    <glyph glyph-name="edieresis" unicode="&#xeb;" horiz-adv-x="1166" 
d="M1043 112q-186 -132 -407 -132q-164 0 -294.5 70.5t-206 191.5t-75.5 273q0 145 68.5 259t186.5 180t268 66q155 0 273 -72.5t184 -202t66 -299.5v-32h-737q18 -59 58.5 -103.5t102 -70.5t140.5 -26q153 0 285 99zM356 560h485q-8 65 -40.5 114.5t-85 77.5t-117.5 28
q-66 0 -117.5 -29t-83.5 -78t-41 -113zM812 1213q-54 0 -87 33t-33 87q0 53 33 86.5t87 33.5t87 -33.5t33 -86.5q0 -54 -33 -87t-87 -33zM355 1213q-54 0 -87 33t-33 87q0 53 33 86.5t87 33.5q53 0 86.5 -33.5t33.5 -86.5q0 -54 -33.5 -87t-86.5 -33z" />
    <glyph glyph-name="igrave" unicode="&#xec;" horiz-adv-x="532" 
d="M383 1162h-204l-199 338h261zM410 0h-287v1000h287v-1000z" />
    <glyph glyph-name="iacute" unicode="&#xed;" horiz-adv-x="531" 
d="M355 1162h-204l141 338h260zM409 0h-287v1000h287v-1000z" />
    <glyph glyph-name="icircumflex" unicode="&#xee;" horiz-adv-x="531" 
d="M603 1162h-211l-126 221l-126 -221h-211l220 338h235zM409 0h-287v1000h287v-1000z" />
    <glyph glyph-name="idieresis" unicode="&#xef;" horiz-adv-x="531" 
d="M409 0h-287v1000h287v-1000zM495 1213q-54 0 -87 33t-33 87q0 53 33 86.5t87 33.5t87 -33.5t33 -86.5q0 -54 -33 -87t-87 -33zM38 1213q-54 0 -87 33t-33 87q0 53 33 86.5t87 33.5q53 0 86.5 -33.5t33.5 -86.5q0 -54 -33.5 -87t-86.5 -33z" />
    <glyph glyph-name="eth" unicode="&#xf0;" horiz-adv-x="1171" 
d="M1049 1265l-174 -68q122 -139 188 -302.5t66 -339.5q0 -178 -65 -309.5t-183 -203.5t-280 -72q-152 0 -272 64t-188.5 176.5t-68.5 256.5q0 132 57.5 233t159 159t232.5 58q97 0 177 -33t136 -93q-31 83 -82 164t-123 151l-297 -120l-46 114l245 98q-46 34 -89.5 60
t-100.5 50l122 192q87 -45 166 -97t147 -111l227 87zM600 239q60 0 108 32t75.5 86.5t27.5 122.5q0 69 -28 122.5t-76 84.5t-111 31q-60 0 -107 -30.5t-74 -82.5t-27 -120q0 -69 28 -125t76 -88.5t108 -32.5z" />
    <glyph glyph-name="ntilde" unicode="&#xf1;" 
d="M997 1467q-3 -126 -57.5 -191.5t-156.5 -65.5q-63 0 -104.5 21t-79.5 49q-30 22 -60 38.5t-70 16.5q-105 0 -115 -117h-107q8 259 218 259q68 0 112.5 -23t81.5 -49q31 -20 60.5 -36.5t66.5 -16.5q95 0 105 115h106zM1120 0h-287v512q0 117 -55.5 183.5t-151.5 66.5
q-100 0 -158.5 -69.5t-58.5 -188.5v-504h-287v1000h232l10 -160q54 88 141 134t205 46q191 0 300.5 -117.5t109.5 -324.5v-578z" />
    <glyph glyph-name="ograve" unicode="&#xf2;" horiz-adv-x="1191" 
d="M717 1162h-204l-198 338h260zM597 -20q-154 0 -276 67.5t-191.5 185.5t-69.5 267q0 150 69.5 267.5t191.5 185t276 67.5t274.5 -67.5t190 -185t69.5 -267.5q0 -149 -69.5 -267t-190 -185.5t-274.5 -67.5zM596 237q69 0 123.5 34.5t86 94.5t31.5 136q0 74 -31.5 133.5
t-86 93.5t-123.5 34q-70 0 -124.5 -34t-86 -93.5t-31.5 -133.5q0 -76 31.5 -136t86 -94.5t124.5 -34.5z" />
    <glyph glyph-name="oacute" unicode="&#xf3;" horiz-adv-x="1191" 
d="M679 1162h-204l142 338h261zM597 -20q-154 0 -276 67.5t-191.5 185.5t-69.5 267q0 150 69.5 267.5t191.5 185t276 67.5t274.5 -67.5t190 -185t69.5 -267.5q0 -149 -69.5 -267t-190 -185.5t-274.5 -67.5zM596 237q69 0 123.5 34.5t86 94.5t31.5 136q0 74 -31.5 133.5
t-86 93.5t-123.5 34q-70 0 -124.5 -34t-86 -93.5t-31.5 -133.5q0 -76 31.5 -136t86 -94.5t124.5 -34.5z" />
    <glyph glyph-name="ocircumflex" unicode="&#xf4;" horiz-adv-x="1191" 
d="M933 1162h-211l-126 221l-126 -221h-211l220 338h234zM597 -20q-154 0 -276 67.5t-191.5 185.5t-69.5 267q0 150 69.5 267.5t191.5 185t276 67.5t274.5 -67.5t190 -185t69.5 -267.5q0 -149 -69.5 -267t-190 -185.5t-274.5 -67.5zM596 237q69 0 123.5 34.5t86 94.5
t31.5 136q0 74 -31.5 133.5t-86 93.5t-123.5 34q-70 0 -124.5 -34t-86 -93.5t-31.5 -133.5q0 -76 31.5 -136t86 -94.5t124.5 -34.5z" />
    <glyph glyph-name="otilde" unicode="&#xf5;" horiz-adv-x="1191" 
d="M961 1467q-3 -126 -57.5 -191.5t-156.5 -65.5q-63 0 -104.5 21t-79.5 49q-30 22 -60 38.5t-70 16.5q-105 0 -115 -117h-107q8 259 218 259q68 0 112.5 -23t81.5 -49q31 -20 60.5 -36.5t66.5 -16.5q95 0 105 115h106zM597 -20q-154 0 -276 67.5t-191.5 185.5t-69.5 267
q0 150 69.5 267.5t191.5 185t276 67.5t274.5 -67.5t190 -185t69.5 -267.5q0 -149 -69.5 -267t-190 -185.5t-274.5 -67.5zM596 237q69 0 123.5 34.5t86 94.5t31.5 136q0 74 -31.5 133.5t-86 93.5t-123.5 34q-70 0 -124.5 -34t-86 -93.5t-31.5 -133.5q0 -76 31.5 -136
t86 -94.5t124.5 -34.5z" />
    <glyph glyph-name="odieresis" unicode="&#xf6;" horiz-adv-x="1191" 
d="M597 -20q-154 0 -276 67.5t-191.5 185t-69.5 267.5q0 149 69.5 266.5t191.5 185.5t276 68t274.5 -68t190 -185.5t69.5 -266.5q0 -150 -69.5 -267.5t-190 -185t-274.5 -67.5zM596 237q69 0 123.5 34.5t86 94t31.5 135.5q0 75 -31.5 134t-86 93.5t-123.5 34.5
q-70 0 -124.5 -34.5t-86 -93.5t-31.5 -134q0 -76 31.5 -135.5t86 -94t124.5 -34.5zM819 1213q-54 0 -87 33t-33 87q0 53 33 86.5t87 33.5t87 -33.5t33 -86.5q0 -54 -33 -87t-87 -33zM362 1213q-54 0 -87 33t-33 87q0 53 33 86.5t87 33.5q53 0 86.5 -33.5t33.5 -86.5
q0 -54 -33.5 -87t-86.5 -33z" />
    <glyph glyph-name="divide" unicode="&#xf7;" horiz-adv-x="1044" 
d="M522 707q-57 0 -96 39.5t-39 96.5t39 97t96 40q58 0 97.5 -40t39.5 -97t-39.5 -96.5t-97.5 -39.5zM922 400h-800v160h800v-160zM522 -20q-57 0 -96 40t-39 97q0 56 39 96t96 40q58 0 97.5 -40t39.5 -96q0 -57 -39.5 -97t-97.5 -40z" />
    <glyph glyph-name="oslash" unicode="&#xf8;" horiz-adv-x="1191" 
d="M415 -74l-96 39l29 69q-131 63 -209.5 185.5t-78.5 280.5q0 150 69.5 267.5t191.5 185t276 67.5q39 0 77 -4.5t73 -14.5l28 68l96 -40l-26 -63q131 -62 208.5 -185t77.5 -281q0 -149 -69.5 -267t-190 -185.5t-274.5 -67.5q-40 0 -78 4.5t-74 14.5zM453 288l194 469
q-24 6 -51 6q-70 0 -124.5 -34t-86 -93.5t-31.5 -133.5q0 -69 26.5 -124.5t72.5 -89.5zM596 237q69 0 123.5 34.5t86 94.5t31.5 136q0 66 -26 121t-71 89l-194 -469q22 -6 50 -6z" />
    <glyph glyph-name="ugrave" unicode="&#xf9;" 
d="M728 1162h-205l-197 338h260zM1100 0h-233l-10 160q-53 -88 -140.5 -134t-204.5 -46q-192 0 -301 118t-109 324v578h287v-512q0 -117 55.5 -183.5t151.5 -66.5q100 0 158.5 69.5t58.5 188.5v504h287v-1000z" />
    <glyph glyph-name="uacute" unicode="&#xfa;" 
d="M631 1162h-205l142 338h260zM1100 0h-233l-10 160q-53 -88 -140.5 -134t-204.5 -46q-192 0 -301 118t-109 324v578h287v-512q0 -117 55.5 -183.5t151.5 -66.5q100 0 158.5 69.5t58.5 188.5v504h287v-1000z" />
    <glyph glyph-name="ucircumflex" unicode="&#xfb;" 
d="M881 1162h-211l-127 221l-125 -221h-211l220 338h234zM1100 0h-233l-10 160q-53 -88 -140.5 -134t-204.5 -46q-192 0 -301 118t-109 324v578h287v-512q0 -117 55.5 -183.5t151.5 -66.5q100 0 158.5 69.5t58.5 188.5v504h287v-1000z" />
    <glyph glyph-name="udieresis" unicode="&#xfc;" 
d="M1100 0h-233l-10 160q-53 -88 -140.5 -134t-204.5 -46q-192 0 -301 118t-109 324v578h287v-512q0 -117 55.5 -183.5t151.5 -66.5q100 0 158.5 69.5t58.5 188.5v504h287v-1000zM840 1213q-54 0 -87 33t-33 87q0 53 33 86.5t87 33.5t87 -33.5t33 -86.5q0 -54 -33 -87
t-87 -33zM383 1213q-54 0 -87 33t-33 87q0 53 33 86.5t87 33.5q53 0 86.5 -33.5t33.5 -86.5q0 -54 -33.5 -87t-86.5 -33z" />
    <glyph glyph-name="yacute" unicode="&#xfd;" horiz-adv-x="1291" 
d="M748 1162h-204l142 338h260zM642 -500h-305l208 501l-517 999h336l316 -672l279 672h304z" />
    <glyph glyph-name="thorn" unicode="&#xfe;" horiz-adv-x="1256" 
d="M410 -500h-288v2000h288v-642q61 76 148 119t192 43q134 0 238.5 -67.5t165 -185t60.5 -267.5q0 -149 -60.5 -267t-165 -185.5t-238.5 -67.5q-105 0 -192 43.5t-148 118.5v-642zM665 237q73 0 130.5 34t91 93.5t33.5 135.5q0 75 -33.5 135t-91 94t-130.5 34
q-70 0 -126 -31t-90 -85.5t-39 -125.5v-44q5 -69 39 -123.5t90 -85.5t126 -31z" />
    <glyph glyph-name="ydieresis" unicode="&#xff;" horiz-adv-x="1292" 
d="M643 -500h-306l208 501l-505 999h324l317 -672l278 672h305zM901 1213q-54 0 -87 33t-33 87q0 53 33 86.5t87 33.5t87 -33.5t33 -86.5q0 -54 -33 -87t-87 -33zM444 1213q-54 0 -87 33t-33 87q0 53 33 86.5t87 33.5q53 0 86.5 -33.5t33.5 -86.5q0 -54 -33.5 -87t-86.5 -33
z" />
    <glyph glyph-name="Amacron" unicode="&#x100;" horiz-adv-x="1569" 
d="M1122 1752h-679v163h679v-163zM347 0h-323l598 1500h325l598 -1500h-324l-123 322h-628zM571 592h427l-214 556z" />
    <glyph glyph-name="amacron" unicode="&#x101;" horiz-adv-x="1116" 
d="M897 1252h-678v163h678v-163zM1014 0h-250l-15 119q-55 -66 -136 -102.5t-178 -36.5q-105 0 -187 40.5t-129 112t-47 162.5q0 96 51 169t140.5 114.5t203.5 41.5q67 0 134.5 -15t125.5 -42v26q0 60 -33.5 103.5t-92 67.5t-132.5 24q-67 0 -134.5 -22t-124.5 -66l-78 219
q101 52 204.5 78.5t200.5 26.5q146 0 253 -57.5t165.5 -162t58.5 -247.5v-553zM496 201q60 0 112.5 27t85 70.5t32.5 94.5v3q-42 30 -95 46.5t-109 16.5q-84 0 -136 -36t-52 -93q0 -37 21.5 -66.5t58 -46t82.5 -16.5z" />
    <glyph glyph-name="Abreve" unicode="&#x102;" horiz-adv-x="1568" 
d="M1102 2000q0 -95 -40.5 -168t-112 -114.5t-165.5 -41.5q-93 0 -165 41.5t-112.5 114.5t-40.5 168h162q0 -86 43 -136.5t114 -50.5q72 0 114 50.5t42 136.5h161zM347 0h-323l598 1500h325l597 -1500h-323l-123 322h-628zM571 592h427l-214 556z" />
    <glyph glyph-name="abreve" unicode="&#x103;" horiz-adv-x="1116" 
d="M876 1500q0 -95 -40.5 -168t-112 -114.5t-165.5 -41.5t-165.5 41.5t-112 114.5t-40.5 168h162q0 -86 42.5 -136.5t114.5 -50.5q71 0 113.5 50.5t42.5 136.5h161zM1014 0h-250l-15 119q-55 -66 -136 -102.5t-178 -36.5q-105 0 -187 40.5t-129 112t-47 162.5q0 96 51 169
t140.5 114.5t203.5 41.5q67 0 134.5 -15t125.5 -42v26q0 60 -33.5 103.5t-92 67.5t-132.5 24q-67 0 -134.5 -22t-124.5 -66l-78 219q101 52 204.5 78.5t200.5 26.5q146 0 253 -57.5t165.5 -162t58.5 -247.5v-553zM496 201q60 0 112.5 27t85 70.5t32.5 94.5v3
q-42 30 -95 46.5t-109 16.5q-84 0 -136 -36t-52 -93q0 -37 21.5 -66.5t58 -46t82.5 -16.5z" />
    <glyph glyph-name="Aogonek" unicode="&#x104;" horiz-adv-x="1568" 
d="M347 0h-323l598 1500h325l597 -1500h-99q-63 -28 -101.5 -75.5t-38.5 -93.5q0 -43 33.5 -72.5t89.5 -31.5l-22 -143q-111 0 -176.5 50.5t-65.5 131.5q0 70 50.5 133.5t135.5 100.5h-129l-123 322h-628zM571 592h427l-214 556z" />
    <glyph glyph-name="aogonek" unicode="&#x105;" horiz-adv-x="1116" 
d="M1014 0h-47q-63 -28 -101.5 -75.5t-38.5 -93.5q0 -43 33 -72.5t89 -31.5l-21 -143q-111 0 -176.5 50.5t-65.5 131.5q0 70 50 133.5t136 100.5h-108l-15 119q-55 -66 -136 -102.5t-178 -36.5q-105 0 -187 40.5t-129 112t-47 162.5q0 96 51 169t140.5 114.5t203.5 41.5
q67 0 134.5 -15t125.5 -42v26q0 60 -33.5 103.5t-92 67.5t-132.5 24q-67 0 -134.5 -22t-124.5 -66l-78 219q101 52 204.5 78.5t200.5 26.5q146 0 253 -57.5t165.5 -162t58.5 -247.5v-553zM496 201q60 0 112.5 27t85 70.5t32.5 94.5v3q-42 30 -95 46.5t-109 16.5
q-84 0 -136 -36t-52 -93q0 -37 21.5 -66.5t58 -46t82.5 -16.5z" />
    <glyph glyph-name="Cacute" unicode="&#x106;" horiz-adv-x="1500" 
d="M920 1662h-205l142 338h260zM1422 188q-105 -102 -248.5 -160t-313.5 -58t-314.5 58.5t-251 164t-165.5 247.5t-59 310t59 310.5t165.5 247.5t251 163.5t314.5 58.5q169 0 312 -58t248 -161l-215 -216q-63 77 -153 121.5t-197 44.5q-101 0 -186.5 -38.5t-149.5 -108
t-99 -162.5t-35 -201q0 -110 35 -203t99 -162.5t149.5 -108t186.5 -38.5q107 0 196.5 44.5t152.5 121.5z" />
    <glyph glyph-name="cacute" unicode="&#x107;" horiz-adv-x="1062" 
d="M658 1162h-204l142 338h260zM1008 159q-73 -84 -179 -131.5t-233 -47.5q-154 0 -275.5 67.5t-191 185.5t-69.5 267q0 150 69.5 267.5t191 185t275.5 67.5q126 0 232 -47t179 -130l-169 -177q-39 45 -98.5 70.5t-124.5 25.5q-75 0 -134 -33.5t-93 -92t-34 -134.5
q0 -77 34 -137t93 -93.5t134 -33.5q65 0 125 25.5t98 70.5z" />
    <glyph glyph-name="Ccircumflex" unicode="&#x108;" horiz-adv-x="1500" 
d="M1183 1662h-211l-126 221l-126 -221h-210l219 338h235zM1422 188q-105 -102 -248.5 -160t-313.5 -58t-314.5 58.5t-251 164t-165.5 247.5t-59 310t59 310.5t165.5 247.5t251 163.5t314.5 58.5q169 0 312 -58t248 -161l-215 -216q-63 77 -153 121.5t-197 44.5
q-101 0 -186.5 -38.5t-149.5 -108t-99 -162.5t-35 -201q0 -110 35 -203t99 -162.5t149.5 -108t186.5 -38.5q107 0 196.5 44.5t152.5 121.5z" />
    <glyph glyph-name="ccircumflex" unicode="&#x109;" horiz-adv-x="1062" 
d="M912 1162h-211l-126 221l-126 -221h-211l220 338h234zM1008 159q-73 -84 -179 -131.5t-233 -47.5q-154 0 -275.5 67.5t-191 185.5t-69.5 267q0 150 69.5 267.5t191 185t275.5 67.5q126 0 232 -47t179 -130l-169 -177q-39 45 -98.5 70.5t-124.5 25.5q-75 0 -134 -33.5
t-93 -92t-34 -134.5q0 -77 34 -137t93 -93.5t134 -33.5q65 0 125 25.5t98 70.5z" />
    <glyph glyph-name="Cdotaccent" unicode="&#x10a;" horiz-adv-x="1500" 
d="M1422 188q-105 -102 -249 -160t-313 -58q-171 0 -315 58.5t-250.5 164t-165.5 247.5t-59 310t59 310.5t165.5 247.5t250.5 163.5t315 58.5q168 0 311.5 -58t248.5 -161l-215 -216q-63 77 -153.5 121.5t-196.5 44.5q-101 0 -186.5 -38.5t-149.5 -108t-99 -162.5t-35 -201
q0 -110 35 -203t99 -162.5t149.5 -108t186.5 -38.5q106 0 196 44.5t153 121.5zM822 1702q-54 0 -86.5 33.5t-32.5 87.5q0 53 32.5 86t86.5 33t87.5 -33t33.5 -86q0 -54 -33.5 -87.5t-87.5 -33.5z" />
    <glyph glyph-name="cdotaccent" unicode="&#x10b;" horiz-adv-x="1062" 
d="M1008 159q-73 -84 -179 -131.5t-233 -47.5q-154 0 -275.5 67.5t-191 185.5t-69.5 267q0 150 69.5 267.5t191 185t275.5 67.5q126 0 232 -47t179 -130l-169 -177q-39 45 -98.5 70.5t-124.5 25.5q-75 0 -134 -33.5t-93 -92t-34 -134.5q0 -77 34 -137t93 -93.5t134 -33.5
q65 0 125 25.5t98 70.5zM609 1202q-54 0 -86.5 33.5t-32.5 87.5q0 53 32.5 86t86.5 33t87.5 -33t33.5 -86q0 -54 -33.5 -87.5t-87.5 -33.5z" />
    <glyph glyph-name="Ccaron" unicode="&#x10c;" horiz-adv-x="1500" 
d="M964 1662h-234l-220 338h212l125 -220l126 220h211zM1422 188q-105 -102 -248.5 -160t-313.5 -58t-314.5 58.5t-251 164t-165.5 247.5t-59 310t59 310.5t165.5 247.5t251 163.5t314.5 58.5q169 0 312 -58t248 -161l-215 -216q-63 77 -153 121.5t-197 44.5
q-101 0 -186.5 -38.5t-149.5 -108t-99 -162.5t-35 -201q0 -110 35 -203t99 -162.5t149.5 -108t186.5 -38.5q107 0 196.5 44.5t152.5 121.5z" />
    <glyph glyph-name="ccaron" unicode="&#x10d;" horiz-adv-x="1062" 
d="M722 1162h-233l-220 338h211l126 -220l126 220h210zM1008 159q-73 -84 -179 -131.5t-233 -47.5q-154 0 -275.5 67.5t-191 185.5t-69.5 267q0 150 69.5 267.5t191 185t275.5 67.5q126 0 232 -47t179 -130l-169 -177q-39 45 -98.5 70.5t-124.5 25.5q-75 0 -134 -33.5
t-93 -92t-34 -134.5q0 -77 34 -137t93 -93.5t134 -33.5q65 0 125 25.5t98 70.5z" />
    <glyph glyph-name="Dcaron" unicode="&#x10e;" horiz-adv-x="1572" 
d="M830 1662h-234l-220 338h212l125 -220l126 220h211zM122 0v1500h492q272 0 471 -92t308 -260t109 -398q0 -229 -109 -397.5t-308 -260.5t-471 -92h-492zM430 269h195q179 0 304.5 56.5t191.5 164t66 260.5q0 154 -66 261t-191.5 163.5t-304.5 56.5h-195v-962z" />
    <glyph glyph-name="dcaron" unicode="&#x10f;" horiz-adv-x="1735" 
d="M1516 1070h-163l101 450h199zM1152 0h-252l-15 136q-64 -72 -153.5 -114t-195.5 -42q-137 0 -244.5 67.5t-169.5 185.5t-62 267q0 150 62 267.5t169.5 185t244.5 67.5q98 0 182 -35.5t147 -98.5v614h287v-1500zM610 237q71 0 128.5 32t92 87.5t34.5 126.5v36
q0 71 -34.5 126t-92 86.5t-128.5 31.5q-73 0 -131 -34t-91.5 -93.5t-33.5 -135.5q0 -75 33.5 -134.5t91.5 -94t131 -34.5z" />
    <glyph glyph-name="Dcroat" unicode="&#x110;" horiz-adv-x="1646" 
d="M196 0v635h-180v220h180v645h492q272 0 471 -92t308 -260t109 -398q0 -229 -109 -397.5t-308 -260.5t-471 -92h-492zM816 635h-312v-366h195q179 0 304.5 56.5t191.5 164t66 260.5q0 154 -66 261t-191.5 163.5t-304.5 56.5h-195v-376h312v-220z" />
    <glyph glyph-name="dcroat" unicode="&#x111;" horiz-adv-x="1274" 
d="M1152 0h-252l-15 136q-64 -72 -153.5 -114t-195.5 -42q-137 0 -244.5 67.5t-169.5 185.5t-62 267q0 150 62 267.5t169.5 185t244.5 67.5q98 0 182 -35.5t147 -98.5v271h-290v163h290v180h287v-180h101v-163h-101v-1157zM610 237q71 0 128.5 32t92 87.5t34.5 126.5v36
q0 71 -34.5 126t-92 86.5t-128.5 31.5q-73 0 -131 -34t-91.5 -93.5t-33.5 -135.5q0 -75 33.5 -134.5t91.5 -94t131 -34.5z" />
    <glyph glyph-name="Emacron" unicode="&#x112;" horiz-adv-x="1218" 
d="M950 1752h-678v163h678v-163zM122 0v1500h968v-269h-660v-341h619v-270h-619v-351h670v-269h-978z" />
    <glyph glyph-name="emacron" unicode="&#x113;" horiz-adv-x="1166" 
d="M1043 112q-186 -132 -407 -132q-164 0 -294.5 70.5t-206 191.5t-75.5 273q0 145 68.5 259t186.5 180t268 66q155 0 273 -72.5t184 -202t66 -299.5v-32h-737q18 -59 58.5 -103.5t102 -70.5t140.5 -26q153 0 285 99zM356 560h485q-8 65 -40.5 114.5t-85 77.5t-117.5 28
q-66 0 -117.5 -29t-83.5 -78t-41 -113zM922 1252h-678v163h678v-163z" />
    <glyph glyph-name="Ebreve" unicode="&#x114;" horiz-adv-x="1218" 
d="M929 2000q0 -95 -40.5 -168t-112 -114.5t-165.5 -41.5t-165.5 41.5t-112 114.5t-40.5 168h161q0 -86 43 -136.5t115 -50.5q71 0 113.5 50.5t42.5 136.5h161zM122 0v1500h968v-269h-660v-341h619v-270h-619v-351h670v-269h-978z" />
    <glyph glyph-name="ebreve" unicode="&#x115;" horiz-adv-x="1166" 
d="M1043 112q-186 -132 -407 -132q-164 0 -294.5 70.5t-206 191.5t-75.5 273q0 145 68.5 259t186.5 180t268 66q155 0 273 -72.5t184 -202t66 -299.5v-32h-737q18 -59 58.5 -103.5t102 -70.5t140.5 -26q153 0 285 99zM356 560h485q-8 65 -40.5 114.5t-85 77.5t-117.5 28
q-66 0 -117.5 -29t-83.5 -78t-41 -113zM901 1500q0 -95 -40 -168t-111.5 -114.5t-165.5 -41.5t-165.5 41.5t-112 114.5t-40.5 168h161q0 -86 43 -136.5t114 -50.5q72 0 114 50.5t42 136.5h161z" />
    <glyph glyph-name="Edotaccent" unicode="&#x116;" horiz-adv-x="1212" 
d="M122 0v1500h968v-269h-660v-341h619v-270h-619v-351h670v-269h-978zM605 1702q-54 0 -86.5 33.5t-32.5 87.5q0 53 32.5 86t86.5 33t87.5 -33t33.5 -86q0 -54 -33.5 -87.5t-87.5 -33.5z" />
    <glyph glyph-name="edotaccent" unicode="&#x117;" horiz-adv-x="1166" 
d="M1043 112q-186 -132 -407 -132q-164 0 -294.5 70.5t-206 191.5t-75.5 273q0 145 68.5 259t186.5 180t268 66q155 0 273 -72.5t184 -202t66 -299.5v-32h-737q18 -59 58.5 -103.5t102 -70.5t140.5 -26q153 0 285 99zM356 560h485q-8 65 -40.5 114.5t-85 77.5t-117.5 28
q-66 0 -117.5 -29t-83.5 -78t-41 -113zM602 1202q-54 0 -86.5 33.5t-32.5 87.5q0 53 32.5 86t86.5 33t87.5 -33t33.5 -86q0 -54 -33.5 -87.5t-87.5 -33.5z" />
    <glyph glyph-name="Eogonek" unicode="&#x118;" horiz-adv-x="1212" 
d="M122 0v1500h968v-269h-660v-341h619v-270h-619v-351h670v-269h-37q-63 -28 -101.5 -75.5t-38.5 -93.5q0 -43 33 -72.5t89 -31.5l-21 -143q-111 0 -176.5 50.5t-65.5 131.5q0 70 50.5 133.5t135.5 100.5h-846z" />
    <glyph glyph-name="eogonek" unicode="&#x119;" horiz-adv-x="1166" 
d="M1043 112q-52 -38 -110.5 -63t-116.5 -45q-69 -24 -109.5 -75t-40.5 -98q0 -43 33.5 -72.5t89.5 -31.5l-22 -143q-110 0 -176 50.5t-66 131.5q0 62 39.5 119.5t109.5 96.5q-20 -2 -39 -2q-164 0 -294 70.5t-205.5 191.5t-75.5 273q0 145 68.5 259t186.5 180t268 66
q155 0 273 -72.5t184 -202t66 -299.5v-32h-737q18 -59 58.5 -103.5t101.5 -70.5t139 -26q155 0 287 99zM356 560h485q-8 65 -40.5 114.5t-84.5 77.5t-117 28q-67 0 -118.5 -29t-83.5 -78t-41 -113z" />
    <glyph glyph-name="Ecaron" unicode="&#x11a;" horiz-adv-x="1212" 
d="M745 1662h-234l-219 338h211l125 -220l126 220h211zM122 0v1500h968v-269h-660v-341h619v-270h-619v-351h670v-269h-978z" />
    <glyph glyph-name="ecaron" unicode="&#x11b;" horiz-adv-x="1166" 
d="M1043 112q-186 -132 -407 -132q-164 0 -294.5 70.5t-206 191.5t-75.5 273q0 145 68.5 259t186.5 180t268 66q155 0 273 -72.5t184 -202t66 -299.5v-32h-737q18 -59 58.5 -103.5t102 -70.5t140.5 -26q153 0 285 99zM356 560h485q-8 65 -40.5 114.5t-85 77.5t-117.5 28
q-66 0 -117.5 -29t-83.5 -78t-41 -113zM699 1162h-233l-220 338h211l126 -220l125 220h212z" />
    <glyph glyph-name="Gcircumflex" unicode="&#x11c;" horiz-adv-x="1646" 
d="M1180 1662h-212l-126 221l-126 -221h-210l219 338h235zM1206 1123q-66 66 -157.5 102t-195.5 36t-190 -36t-148 -103t-96 -159.5t-34 -206.5t34.5 -209t98 -163.5t151 -106.5t193.5 -38q88 0 161.5 27t129.5 77t92.5 121t50.5 159h-435v235h706l9 -116q0 -171 -52.5 -313
t-148.5 -244.5t-228.5 -158.5t-293.5 -56q-167 0 -309.5 59t-249 165t-165.5 248.5t-59 308.5t58.5 307.5t164 247.5t246.5 165t307 59q155 0 300 -54t259 -154z" />
    <glyph glyph-name="gcircumflex" unicode="&#x11d;" horiz-adv-x="1256" 
d="M974 1162h-212l-126 221l-126 -221h-211l220 338h235zM531 -12q-135 0 -242 67.5t-168 184t-61 264.5q0 149 61 265t168 183.5t243 67.5q106 0 194.5 -41.5t152.5 -114.5l13 136h252v-972q0 -166 -72.5 -289.5t-204.5 -191t-309 -67.5q-246 0 -446 154l116 234
q133 -131 310 -131q95 0 166.5 38t112 106t40.5 158v82q-62 -62 -145 -97.5t-181 -35.5zM605 244q70 0 127 30.5t91 85t34 123.5v43q0 69 -34.5 123t-91 84.5t-126.5 30.5q-72 0 -129 -34t-90 -92.5t-33 -133.5t33 -134t90 -92.5t129 -33.5z" />
    <glyph glyph-name="Gbreve" unicode="&#x11e;" horiz-adv-x="1646" 
d="M1151 2000q0 -95 -40.5 -168t-112.5 -114.5t-165 -41.5q-94 0 -165.5 41.5t-112 114.5t-40.5 168h162q0 -86 42.5 -136.5t113.5 -50.5q72 0 114.5 50.5t42.5 136.5h161zM1206 1123q-66 66 -157.5 102t-195.5 36t-190 -36t-148 -103t-96 -159.5t-34 -206.5t34.5 -209
t98 -163.5t151 -106.5t193.5 -38q88 0 161.5 27t129.5 77t92.5 121t50.5 159h-435v235h706l9 -116q0 -171 -52.5 -313t-148.5 -244.5t-228.5 -158.5t-293.5 -56q-167 0 -309.5 59t-249 165t-165.5 248.5t-59 308.5t58.5 307.5t164 247.5t246.5 165t307 59q155 0 300 -54
t259 -154z" />
    <glyph glyph-name="gbreve" unicode="&#x11f;" horiz-adv-x="1256" 
d="M954 1500q0 -95 -40 -168t-112 -114.5t-165 -41.5q-94 0 -165.5 41.5t-112 114.5t-40.5 168h161q0 -86 43 -136.5t114 -50.5q72 0 114.5 50.5t42.5 136.5h160zM531 -12q-135 0 -242 67.5t-168 184t-61 264.5q0 149 61 265t168 183.5t243 67.5q106 0 194.5 -41.5
t152.5 -114.5l13 136h252v-972q0 -166 -72.5 -289.5t-204.5 -191t-309 -67.5q-246 0 -446 154l116 234q133 -131 310 -131q95 0 166.5 38t112 106t40.5 158v82q-62 -62 -145 -97.5t-181 -35.5zM605 244q70 0 127 30.5t91 85t34 123.5v43q0 69 -34.5 123t-91 84.5
t-126.5 30.5q-72 0 -129 -34t-90 -92.5t-33 -133.5t33 -134t90 -92.5t129 -33.5z" />
    <glyph glyph-name="Gdotaccent" unicode="&#x120;" horiz-adv-x="1646" 
d="M1206 1123q-66 66 -157.5 102t-195.5 36t-190 -36t-148 -103t-96 -159.5t-34 -206.5t34.5 -209t98 -163.5t151 -106.5t193.5 -38q88 0 161.5 27t129.5 77t92.5 121t50.5 159h-435v235h706l9 -116q0 -171 -52.5 -313t-148.5 -244.5t-228.5 -158.5t-293.5 -56
q-167 0 -309.5 59t-249 165t-165.5 248.5t-59 308.5t58.5 307.5t164 247.5t246.5 165t307 59q155 0 300 -54t259 -154zM843 1702q-54 0 -86.5 33.5t-32.5 87.5q0 53 32.5 86t86.5 33t87.5 -33t33.5 -86q0 -54 -33.5 -87.5t-87.5 -33.5z" />
    <glyph glyph-name="gdotaccent" unicode="&#x121;" horiz-adv-x="1256" 
d="M531 -12q-135 0 -242 67.5t-168 184t-61 264.5q0 149 61 265t168 183.5t243 67.5q106 0 194.5 -41.5t152.5 -114.5l13 136h252v-972q0 -166 -72.5 -289.5t-204.5 -191t-309 -67.5q-246 0 -446 154l116 234q133 -131 310 -131q95 0 166.5 38t112 106t40.5 158v82
q-62 -62 -145 -97.5t-181 -35.5zM605 244q70 0 127 30.5t91 85t34 123.5v43q0 69 -34.5 123t-91 84.5t-126.5 30.5q-72 0 -129 -34t-90 -92.5t-33 -133.5t33 -134t90 -92.5t129 -33.5zM626 1202q-54 0 -86.5 33.5t-32.5 87.5q0 53 32.5 86t86.5 33t87.5 -33t33.5 -86
q0 -54 -33.5 -87.5t-87.5 -33.5z" />
    <glyph glyph-name="Gcommaaccent" unicode="&#x122;" horiz-adv-x="1646" 
d="M1206 1123q-66 66 -157.5 102t-195.5 36t-190 -36t-148 -103t-96 -159.5t-34 -206.5t34.5 -209t98 -163.5t151 -106.5t193.5 -38q88 0 161.5 27t129.5 77t92.5 121t50.5 159h-435v235h706l9 -116q0 -171 -52.5 -313t-148.5 -244.5t-228.5 -158.5t-293.5 -56
q-167 0 -309.5 59t-249 165t-165.5 248.5t-59 308.5t58.5 307.5t164 247.5t246.5 165t307 59q155 0 300 -54t259 -154zM778 -519l-97 87q45 35 69 90t24 114q0 80 -41 141l207 44q25 -70 25 -144q0 -107 -50.5 -197t-136.5 -135z" />
    <glyph glyph-name="gcommaaccent" unicode="&#x123;" horiz-adv-x="1256" 
d="M687 1170h-202l137 450h166zM531 -12q-135 0 -242 67.5t-168 184t-61 264.5q0 149 61 265t168 183.5t243 67.5q106 0 194.5 -41.5t152.5 -114.5l13 136h252v-972q0 -166 -72.5 -289.5t-204.5 -191t-309 -67.5q-246 0 -446 154l116 234q133 -131 310 -131q95 0 166.5 38
t112 106t40.5 158v82q-62 -62 -145 -97.5t-181 -35.5zM605 244q70 0 127 30.5t91 85t34 123.5v43q0 69 -34.5 123t-91 84.5t-126.5 30.5q-72 0 -129 -34t-90 -92.5t-33 -133.5t33 -134t90 -92.5t129 -33.5z" />
    <glyph glyph-name="Hcircumflex" unicode="&#x124;" horiz-adv-x="1509" 
d="M1092 1662h-211l-126 221l-126 -221h-211l220 338h234zM430 0h-308v1500h308v-627h649v627h308v-1500h-308v604h-649v-604z" />
    <glyph glyph-name="hcircumflex" unicode="&#x125;" 
d="M601 1662h-211l-126 221l-126 -221h-211l220 338h234zM122 0v1500h287v-618q109 138 310 138q189 0 295 -116.5t106 -325.5v-578h-287v502q0 125 -55 193t-154 68q-101 0 -158 -69t-57 -192v-502h-287z" />
    <glyph glyph-name="Hbar" unicode="&#x126;" horiz-adv-x="1554" 
d="M1542 1105h-133v-1105h-308v604h-649v-604h-308v1105h-132v163h132v232h308v-232h649v232h308v-232h133v-163zM452 873h649v232h-649v-232z" />
    <glyph glyph-name="hbar" unicode="&#x127;" horiz-adv-x="1249" 
d="M713 1148h-277v-266q108 138 310 138q189 0 295 -116.5t106 -325.5v-578h-287v502q0 125 -54.5 193t-154.5 68q-101 0 -158 -69t-57 -192v-502h-287v1148h-137v164h137v188h287v-188h277v-164z" />
    <glyph glyph-name="Itilde" unicode="&#x128;" horiz-adv-x="552" 
d="M651 1967h-106q-10 -115 -105 -115q-37 0 -66.5 16.5t-60.5 36.5q-37 26 -81.5 49t-112.5 23q-210 0 -217 -259h106q10 117 115 117q40 0 70 -16.5t60 -38.5q37 -28 79 -49t105 -21q102 0 156.5 65.5t57.5 191.5zM430 1500h-308v-1500h308v1500z" />
    <glyph glyph-name="itilde" unicode="&#x129;" horiz-adv-x="532" 
d="M641 1467q-3 -126 -57.5 -191.5t-156.5 -65.5q-63 0 -105 21t-80 49q-29 22 -59.5 38.5t-69.5 16.5q-105 0 -115 -117h-107q8 259 218 259q68 0 112.5 -23t81.5 -49q31 -20 60.5 -36.5t66.5 -16.5q95 0 105 115h106zM410 0h-287v1000h287v-1000z" />
    <glyph glyph-name="Imacron" unicode="&#x12a;" horiz-adv-x="554" 
d="M616 1752v163h-678v-163h678zM431 1500h-308v-1500h308v1500z" />
    <glyph glyph-name="imacron" unicode="&#x12b;" horiz-adv-x="532" 
d="M605 1252h-678v163h678v-163zM410 0h-288v1000h288v-1000z" />
    <glyph glyph-name="Iogonek" unicode="&#x12e;" horiz-adv-x="552" 
d="M430 1500h-308v-1500h175q-85 -37 -135.5 -100.5t-50.5 -133.5q0 -81 66 -131.5t177 -50.5l21 143q-56 2 -89 31.5t-33 72.5q0 46 38.5 93.5t101.5 75.5h37v1500z" />
    <glyph glyph-name="iogonek" unicode="&#x12f;" horiz-adv-x="535" 
d="M267 1239q-57 0 -96 40t-39 97t39 96.5t96 39.5q58 0 97.5 -39.5t39.5 -96.5t-39.5 -97t-97.5 -40zM411 0h-36q-63 -28 -101 -75.5t-38 -93.5q0 -43 33 -72.5t89 -31.5l-21 -143q-111 0 -177 50.5t-66 131.5q0 71 50 134t136 100h-156v1000h287v-1000z" />
    <glyph glyph-name="Idotaccent" unicode="&#x130;" horiz-adv-x="552" 
d="M430 1500h-308v-1500h308v1500zM276 1702q-54 0 -86.5 33.5t-32.5 87.5q0 53 32.5 86t86.5 33t87.5 -33t33.5 -86q0 -54 -33.5 -87.5t-87.5 -33.5z" />
    <glyph glyph-name="dotlessi" unicode="&#x131;" horiz-adv-x="531" 
d="M409 0h-287v1000h287v-1000z" />
    <glyph glyph-name="IJ" unicode="&#x132;" horiz-adv-x="1184" 
d="M430 1500h-308v-1500h308v1500zM423 -369q228 0 368.5 61.5t205.5 195t65 348.5v1264h-308v-1267q0 -168 -85.5 -250.5t-260.5 -82.5z" />
    <glyph glyph-name="ij" unicode="&#x133;" horiz-adv-x="1065" 
d="M267 1239q-57 0 -96 40t-39 97t39 96.5t96 39.5q58 0 97.5 -39.5t39.5 -96.5t-39.5 -97t-97.5 -40zM411 0h-287v1000h287v-1000zM806 1239q-57 0 -96 40t-39 97t39 96.5t96 39.5t96.5 -39.5t39.5 -96.5t-39.5 -97t-96.5 -40zM388 -502v226q16 -3 30.5 -4t27.5 -1
q101 0 159 65.5t58 181.5v1034h287v-1047q0 -233 -102 -353t-298 -120q-37 0 -77 4.5t-85 13.5z" />
    <glyph glyph-name="Jcircumflex" unicode="&#x134;" horiz-adv-x="548" 
d="M605 1662h-211l-126 221l-127 -221h-210l220 338h234zM-213 -369l-15 269q175 0 260.5 82.5t85.5 250.5v1267h308v-1264q0 -215 -65 -348.5t-205.5 -195t-368.5 -61.5z" />
    <glyph glyph-name="jcircumflex" unicode="&#x135;" horiz-adv-x="503" 
d="M568 1162h-211l-127 221l-126 -221h-210l219 338h235zM-182 -502v226q16 -3 31 -4t29 -1q99 0 157 65.5t58 181.5v1034h287v-1047q0 -233 -102 -353t-298 -120q-37 0 -77 4.5t-85 13.5z" />
    <glyph glyph-name="Kcommaaccent" unicode="&#x136;" horiz-adv-x="1482" 
d="M430 0h-308v1500h308v-738q45 66 86 122t70 92l416 524h363l-550 -692l655 -808h-398l-455 561l-187 -237v-324zM651 -519l-97 87q45 35 69 90t24 114q0 79 -41 141l207 44q25 -70 25 -144q0 -107 -50.5 -197t-136.5 -135z" />
    <glyph glyph-name="uni0137" unicode="&#x137;" horiz-adv-x="1228" 
d="M409 0h-287v1500h287v-922l98 118l288 304h359l-423 -445l473 -555h-371l-300 375l-124 -114v-261zM519 -519l-97 87q46 35 70 90t24 114q0 80 -41 141l206 44q25 -70 25 -144q0 -107 -50.5 -197t-136.5 -135z" />
    <glyph glyph-name="kgreenlandic" unicode="&#x138;" horiz-adv-x="1228" 
d="M409 0h-287v1000h287v-422l98 118l288 304h359l-423 -445l473 -555h-371l-299 375l-125 -114v-261z" />
    <glyph glyph-name="Lacute" unicode="&#x139;" horiz-adv-x="1144" 
d="M380 1662h-205l142 338h260zM1102 0h-980v1500h308v-1231h672v-269z" />
    <glyph glyph-name="lacute" unicode="&#x13a;" horiz-adv-x="551" 
d="M375 1662h-204l141 338h261zM429 0h-307v1540h307v-1540z" />
    <glyph glyph-name="uni013B" unicode="&#x13b;" horiz-adv-x="1144" 
d="M1102 0h-980v1500h308v-1231h672v-269zM567 -519l-98 87q46 35 70 90t24 114q0 80 -41 141l207 44q25 -70 25 -144q0 -107 -50.5 -197t-136.5 -135z" />
    <glyph glyph-name="uni013C" unicode="&#x13c;" horiz-adv-x="551" 
d="M429 0h-307v1540h307v-1540zM230 -519l-98 87q46 35 70 90t24 114q0 80 -41 141l207 44q25 -70 25 -144q0 -107 -50.5 -197t-136.5 -135z" />
    <glyph glyph-name="Lcaron" unicode="&#x13d;" horiz-adv-x="1144" 
d="M865 1050h-163l101 450h198zM1102 0h-980v1500h308v-1231h672v-269z" />
    <glyph glyph-name="lcaron" unicode="&#x13e;" horiz-adv-x="906" 
d="M429 0h-307v1540h307v-1540zM757 1055h-163l101 450h199z" />
    <glyph glyph-name="Ldot" unicode="&#x13f;" horiz-adv-x="1144" 
d="M1102 0h-980v1500h308v-1231h672v-269zM787 630q-54 0 -87 33t-33 87t33 87t87 33t87 -33t33 -87t-33 -87t-87 -33z" />
    <glyph glyph-name="ldot" unicode="&#x140;" horiz-adv-x="862" 
d="M429 0h-307v1540h307v-1540zM725 650q-53 0 -86.5 33t-33.5 87t33.5 87t86.5 33q54 0 87.5 -33t33.5 -87t-33.5 -87t-87.5 -33z" />
    <glyph glyph-name="Lslash" unicode="&#x141;" horiz-adv-x="1144" 
d="M-42 457l-81 143l245 141v759h308v-581l215 124l80 -142l-295 -171v-461h672v-269h-980v552z" />
    <glyph glyph-name="lslash" unicode="&#x142;" horiz-adv-x="492" 
d="M-97 477l-81 143l273 157v763h307v-586l187 109l81 -142l-268 -156v-765h-307v588z" />
    <glyph glyph-name="Nacute" unicode="&#x143;" horiz-adv-x="1607" 
d="M912 1662h-204l141 338h261zM1485 0h-354l-701 1024v-1024h-308v1500h354l701 -1026v1026h308v-1500z" />
    <glyph glyph-name="nacute" unicode="&#x144;" 
d="M689 1162h-203l141 338h261zM1120 0h-287v512q0 117 -55.5 183.5t-151.5 66.5q-100 0 -158.5 -69.5t-58.5 -188.5v-504h-287v1000h232l10 -160q54 88 141 134t205 46q191 0 300.5 -117.5t109.5 -324.5v-578z" />
    <glyph glyph-name="uni0145" unicode="&#x145;" horiz-adv-x="1605" 
d="M1479 0h-354l-701 1024v-1024h-308v1500h354l701 -1026v1026h308v-1500zM757 -519l-97 87q46 35 70 90t24 114q0 80 -41 141l206 44q26 -71 26 -144q0 -107 -51 -197t-137 -135z" />
    <glyph glyph-name="ncommaaccent" unicode="&#x146;" 
d="M1120 0h-287v512q0 117 -55.5 183.5t-151.5 66.5q-100 0 -158.5 -69.5t-58.5 -188.5v-504h-287v1000h232l10 -160q54 88 141 134t205 46q191 0 300.5 -117.5t109.5 -324.5v-578zM565 -519l-97 87q46 35 70 90t24 114q0 80 -41 141l206 44q26 -71 26 -144q0 -107 -51 -197
t-137 -135z" />
    <glyph glyph-name="Ncaron" unicode="&#x147;" horiz-adv-x="1607" 
d="M927 1662h-234l-220 338h212l125 -220l126 220h211zM1485 0h-354l-701 1024v-1024h-308v1500h354l701 -1026v1026h308v-1500z" />
    <glyph glyph-name="ncaron" unicode="&#x148;" 
d="M747 1162h-233l-220 338h211l126 -220l126 220h210zM1120 0h-287v512q0 117 -55.5 183.5t-151.5 66.5q-100 0 -158.5 -69.5t-58.5 -188.5v-504h-287v1000h232l10 -160q54 88 141 134t205 46q191 0 300.5 -117.5t109.5 -324.5v-578z" />
    <glyph glyph-name="napostrophe" unicode="&#x149;" 
d="M219 1057l-97 87q46 35 69.5 90t23.5 114q0 80 -41 141l207 44q25 -70 25 -144q0 -107 -50.5 -197t-136.5 -135zM1120 0h-287v512q0 117 -55.5 183.5t-151.5 66.5q-99 0 -157.5 -69.5t-58.5 -188.5v-504h-287v1000h232l10 -160q53 88 140.5 134t205.5 46
q191 0 300 -117.5t109 -324.5v-578z" />
    <glyph glyph-name="Eng" unicode="&#x14a;" horiz-adv-x="1607" 
d="M847 -360l-15 269q119 -5 205.5 40.5t116.5 132.5q-34 34 -79.5 86t-94.5 110t-91.5 112.5t-71.5 94.5l-303 416l-82 133l-7 -2l5 -156v-876h-308v1500h313l490 -670q25 -35 61 -87.5t74 -109t69.5 -104.5t46.5 -75l8 1l-7 196v849h308v-1254q0 -216 -64.5 -349.5
t-205.5 -195t-368 -61.5z" />
    <glyph glyph-name="eng" unicode="&#x14b;" 
d="M558 -502v226q16 -3 31 -4t29 -1q100 0 157 65.5t57 181.5v554q0 114 -53 178t-147 64q-66 0 -116.5 -31.5t-78.5 -89t-28 -137.5v-504h-287v1000h232l10 -160q54 88 144 134t208 46q188 0 296 -115.5t108 -316.5v-635q0 -233 -102 -353t-298 -120q-37 0 -77.5 4.5
t-84.5 13.5z" />
    <glyph glyph-name="Omacron" unicode="&#x14c;" horiz-adv-x="1718" 
d="M1198 1752h-678v163h678v-163zM860 -30q-171 0 -315 58.5t-251 163.5t-165.5 247.5t-58.5 310.5q0 169 58.5 311t165.5 247.5t251 163.5t315 58t315 -58.5t250 -163.5t164.5 -247t58.5 -311q0 -168 -58.5 -310t-164.5 -247.5t-250 -164t-315 -58.5zM860 239
q101 0 187.5 39t150.5 108.5t99.5 162t35.5 201.5t-35.5 202t-99.5 162.5t-150.5 108t-187.5 38.5q-102 0 -188.5 -38.5t-151 -108t-100 -162.5t-35.5 -202t35.5 -202t100 -162.5t151 -108t188.5 -38.5z" />
    <glyph glyph-name="omacron" unicode="&#x14d;" horiz-adv-x="1191" 
d="M935 1252h-678v163h678v-163zM597 -20q-154 0 -276 67.5t-191.5 185.5t-69.5 267q0 150 69.5 267.5t191.5 185t276 67.5t274.5 -67.5t190 -185t69.5 -267.5q0 -149 -69.5 -267t-190 -185.5t-274.5 -67.5zM596 237q69 0 123.5 34.5t86 94.5t31.5 136q0 74 -31.5 133.5
t-86 93.5t-123.5 34q-70 0 -124.5 -34t-86 -93.5t-31.5 -133.5q0 -76 31.5 -136t86 -94.5t124.5 -34.5z" />
    <glyph glyph-name="Obreve" unicode="&#x14e;" horiz-adv-x="1717" 
d="M1176 2000q0 -95 -40.5 -168t-112 -114.5t-165.5 -41.5q-93 0 -165 41.5t-112.5 114.5t-40.5 168h162q0 -86 43 -136.5t114 -50.5q72 0 114 50.5t42 136.5h161zM860 -30q-171 0 -315.5 58.5t-251 164t-165 247.5t-58.5 310t58.5 310.5t165 248t251 163.5t315.5 58
t315 -58.5t249.5 -163.5t164 -247t58.5 -311q0 -168 -58.5 -310t-164 -247.5t-249.5 -164t-315 -58.5zM859 239q102 0 188 39t150 108.5t99.5 162t35.5 201.5t-35.5 202t-99 162.5t-150 108t-188.5 38.5q-101 0 -188 -38.5t-151 -108t-99.5 -162.5t-35.5 -202t35.5 -202
t99.5 -162.5t151 -108t188 -38.5z" />
    <glyph glyph-name="obreve" unicode="&#x14f;" horiz-adv-x="1191" 
d="M913 1500q0 -95 -40.5 -168t-112 -114.5t-164.5 -41.5q-94 0 -166 41.5t-112 114.5t-40 168h161q0 -86 43 -136.5t114 -50.5q72 0 114 50.5t42 136.5h161zM597 -20q-154 0 -276 67.5t-191.5 185.5t-69.5 267q0 150 69.5 267.5t191.5 185t276 67.5t274.5 -67.5t190 -185
t69.5 -267.5q0 -149 -69.5 -267t-190 -185.5t-274.5 -67.5zM596 237q69 0 123.5 34.5t86 94.5t31.5 136q0 74 -31.5 133.5t-86 93.5t-123.5 34q-70 0 -124.5 -34t-86 -93.5t-31.5 -133.5q0 -76 31.5 -136t86 -94.5t124.5 -34.5z" />
    <glyph glyph-name="Ohungarumlaut" unicode="&#x150;" horiz-adv-x="1717" 
d="M752 1662h-204l142 338h260zM1155 1662h-204l141 338h261zM860 -30q-171 0 -315.5 58.5t-251 164t-165 247.5t-58.5 310t58.5 310.5t165 248t251 163.5t315.5 58t315 -58.5t249.5 -163.5t164 -247t58.5 -311q0 -168 -58.5 -310t-164 -247.5t-249.5 -164t-315 -58.5z
M859 239q102 0 188 39t150 108.5t99.5 162t35.5 201.5t-35.5 202t-99 162.5t-150 108t-188.5 38.5q-101 0 -188 -38.5t-151 -108t-99.5 -162.5t-35.5 -202t35.5 -202t99.5 -162.5t151 -108t188 -38.5z" />
    <glyph glyph-name="ohungarumlaut" unicode="&#x151;" horiz-adv-x="1191" 
d="M481 1162h-205l142 338h260zM883 1162h-203l141 338h261zM597 -20q-154 0 -276 67.5t-191.5 185.5t-69.5 267q0 150 69.5 267.5t191.5 185t276 67.5t274.5 -67.5t190 -185t69.5 -267.5q0 -149 -69.5 -267t-190 -185.5t-274.5 -67.5zM596 237q69 0 123.5 34.5t86 94.5
t31.5 136q0 74 -31.5 133.5t-86 93.5t-123.5 34t-124 -34t-86.5 -93.5t-31.5 -133.5q0 -76 31.5 -136t86.5 -94.5t124 -34.5z" />
    <glyph glyph-name="OE" unicode="&#x152;" horiz-adv-x="2467" 
d="M811 -30q-161 0 -296 58t-235 163.5t-155 248t-55 309.5q0 169 55 311t155 247.5t235 164t296 58.5q119 0 223.5 -33t192 -94t151.5 -146v243h967v-269h-659v-341h619v-270h-619v-351h669v-269h-977v242q-64 -85 -151.5 -146t-192 -93.5t-223.5 -32.5zM882 239
q107 0 197 38.5t157.5 108t104.5 162.5t37 202q0 108 -37 201t-104.5 162.5t-157.5 108t-197 38.5t-197.5 -38.5t-157.5 -108t-104.5 -162.5t-37.5 -201q0 -109 37.5 -202t104.5 -162.5t157.5 -108t197.5 -38.5z" />
    <glyph glyph-name="oe" unicode="&#x153;" horiz-adv-x="1999" 
d="M1877 112q-187 -132 -408 -132q-154 0 -279.5 63.5t-201.5 171.5q-43 -72 -107 -124.5t-144.5 -81.5t-173.5 -29q-145 0 -258.5 67.5t-179 185.5t-65.5 267q0 150 65.5 267.5t179 185t258.5 67.5q90 0 168 -27t141 -76.5t106 -117.5q69 102 182.5 161.5t255.5 59.5
q156 0 273.5 -72t183.5 -200t66 -298v-31h-735q19 -60 61.5 -105t103.5 -70t135 -25q153 0 285 100zM605 237q72 0 128 34.5t89 94.5t33 136q0 74 -33 133.5t-89 93.5t-128 34t-129 -34t-89.5 -93.5t-32.5 -133.5q0 -76 32.5 -136t89.5 -94.5t129 -34.5zM1190 542h484
q-7 65 -40 114.5t-85 77t-118 27.5t-118 -27.5t-83.5 -76.5t-39.5 -115z" />
    <glyph glyph-name="Racute" unicode="&#x154;" horiz-adv-x="1376" 
d="M691 1662h-204l141 338h261zM1334 0h-341l-315 542h-248v-542h-308v1500h570q181 0 310 -57t197.5 -164.5t68.5 -257.5q0 -154 -72.5 -262.5t-206.5 -162.5zM430 787h239q137 0 210.5 57.5t73.5 164.5t-73.5 164.5t-210.5 57.5h-239v-444z" />
    <glyph glyph-name="racute" unicode="&#x155;" horiz-adv-x="858" 
d="M531 1162h-203l141 338h261zM409 0h-287v1000h250l10 -173q50 91 136 142t197 51q32 0 64.5 -4.5t66.5 -13.5l-36 -258q-66 19 -125 19q-83 0 -145.5 -37.5t-96.5 -104t-34 -155.5v-466z" />
    <glyph glyph-name="Rcommaaccent" unicode="&#x156;" horiz-adv-x="1376" 
d="M1334 0h-341l-315 542h-248v-542h-308v1500h570q181 0 310 -57t197.5 -164.5t68.5 -257.5q0 -154 -72.5 -262.5t-206.5 -162.5zM430 787h239q137 0 210.5 57.5t73.5 164.5t-73.5 164.5t-210.5 57.5h-239v-444zM643 -519l-97 87q45 35 69 90t24 114q0 80 -41 141l207 44
q25 -71 25 -144q0 -107 -50.5 -197t-136.5 -135z" />
    <glyph glyph-name="rcommaaccent" unicode="&#x157;" horiz-adv-x="858" 
d="M409 0h-287v1000h250l10 -173q51 91 136.5 142t196.5 51q32 0 65 -4.5t66 -13.5l-35 -258q-66 19 -126 19q-83 0 -145 -37.5t-96.5 -104t-34.5 -155.5v-466zM212 -519l-98 87q46 35 70 90t24 114q0 80 -41 141l207 44q25 -71 25 -144q0 -107 -50.5 -197t-136.5 -135z" />
    <glyph glyph-name="Rcaron" unicode="&#x158;" horiz-adv-x="1376" 
d="M765 1662h-234l-220 338h211l126 -220l126 220h211zM1334 0h-341l-315 542h-248v-542h-308v1500h570q181 0 310 -57t197.5 -164.5t68.5 -257.5q0 -154 -72.5 -262.5t-206.5 -162.5zM430 787h239q137 0 210.5 57.5t73.5 164.5t-73.5 164.5t-210.5 57.5h-239v-444z" />
    <glyph glyph-name="rcaron" unicode="&#x159;" horiz-adv-x="859" 
d="M546 1162h-233l-220 338h211l126 -220l126 220h210zM410 0h-287v1000h250l10 -173q50 91 136 142t197 51q32 0 64.5 -4.5t66.5 -13.5l-36 -258q-66 19 -125 19q-83 0 -145.5 -37.5t-96.5 -104t-34 -155.5v-466z" />
    <glyph glyph-name="Sacute" unicode="&#x15a;" horiz-adv-x="1230" 
d="M712 1662h-203l141 338h260zM52 162l146 235q69 -56 133.5 -91.5t127.5 -52t129 -16.5q78 0 135 22t88.5 63t31.5 95q0 63 -40 106t-104.5 75.5t-139.5 62.5q-73 30 -146.5 65.5t-135 84.5t-99 119.5t-37.5 171.5q0 132 66.5 228t182.5 148t265 52q105 0 218.5 -28
t226.5 -85l-121 -249q-71 43 -153 68t-154 25q-65 0 -113.5 -20t-75.5 -55.5t-27 -83.5q0 -57 39 -98.5t101.5 -73.5t134.5 -64q74 -32 149.5 -70t138 -89.5t101 -123t38.5 -171.5q0 -132 -70 -231.5t-195 -155t-291 -55.5q-152 0 -291 49t-259 143z" />
    <glyph glyph-name="sacute" unicode="&#x15b;" horiz-adv-x="914" 
d="M560 1162h-203l141 338h260zM72 86l63 244q30 -33 80.5 -61t109 -44.5t110.5 -16.5q62 0 97 23.5t35 63.5q0 33 -23.5 55.5t-62.5 40t-85 34.5q-67 25 -136 58t-116 90t-47 151q0 90 47 156.5t133 103t200 36.5q185 0 369 -93l-81 -227q-32 25 -80 46.5t-98.5 34.5
t-90.5 13q-49 0 -76.5 -20t-27.5 -55q0 -26 19 -46.5t56.5 -39t92.5 -39.5q68 -25 137.5 -59.5t117 -92t47.5 -152.5q0 -93 -50.5 -163t-142 -108.5t-214.5 -38.5q-205 0 -383 106z" />
    <glyph glyph-name="Scircumflex" unicode="&#x15c;" horiz-adv-x="1230" 
d="M983 1662h-212l-126 221l-126 -221h-211l220 338h235zM52 162l146 235q69 -56 133.5 -91.5t127.5 -52t129 -16.5q78 0 135 22t88.5 63t31.5 95q0 63 -40 106t-104.5 75.5t-139.5 62.5q-73 30 -146.5 65.5t-135 84.5t-99 119.5t-37.5 171.5q0 132 66.5 228t182.5 148
t265 52q105 0 218.5 -28t226.5 -85l-121 -249q-71 43 -153 68t-154 25q-65 0 -113.5 -20t-75.5 -55.5t-27 -83.5q0 -57 39 -98.5t102 -74t136 -64.5t148 -69.5t138 -89t101 -123t38 -171.5q0 -132 -70 -231.5t-195 -155t-291 -55.5q-152 0 -291 49t-259 143z" />
    <glyph glyph-name="scircumflex" unicode="&#x15d;" horiz-adv-x="914" 
d="M825 1162h-212l-127 221l-125 -221h-211l220 338h234zM72 86l63 244q30 -33 80.5 -61t109 -44.5t110.5 -16.5q62 0 97 23.5t35 63.5q0 33 -23.5 55.5t-62.5 40t-85 34.5q-67 25 -136 58t-116 90t-47 151q0 90 47 156.5t133 103t200 36.5q185 0 369 -93l-81 -227
q-32 25 -80 46.5t-98.5 34.5t-90.5 13q-49 0 -76.5 -20t-27.5 -55q0 -26 19 -46.5t56.5 -39t92.5 -39.5q68 -25 137.5 -59.5t117 -92t47.5 -152.5q0 -93 -50.5 -163t-142 -108.5t-214.5 -38.5q-205 0 -383 106z" />
    <glyph glyph-name="Scedilla" unicode="&#x15e;" horiz-adv-x="1229" 
d="M52 162l146 235q69 -56 133.5 -91.5t127.5 -52t129 -16.5q78 0 135 22t88.5 63t31.5 95q0 63 -40 106t-104.5 75.5t-139.5 62.5q-73 30 -146.5 65.5t-135 84.5t-99 119.5t-37.5 171.5q0 132 66.5 228t182.5 148t265 52q105 0 218.5 -28t226.5 -85l-121 -249
q-71 43 -153 68t-154 25q-65 0 -113.5 -20t-75.5 -55.5t-27 -83.5q0 -57 39 -98.5t101.5 -73.5t134.5 -64q74 -32 149.5 -70t138 -89.5t100.5 -123t38 -171.5q0 -125 -62 -220.5t-174.5 -153t-263.5 -66.5l-29 -64q75 -8 119.5 -49t44.5 -106q0 -77 -61 -127.5t-157 -50.5
q-72 0 -147 32l42 112q39 -19 81 -19q46 0 74.5 23.5t28.5 59.5q0 37 -30.5 60t-86.5 23h-11.5t-11.5 -1l41 106q-137 8 -264 56t-238 135z" />
    <glyph glyph-name="scedilla" unicode="&#x15f;" horiz-adv-x="914" 
d="M72 86l63 244q30 -33 80.5 -61t109 -44.5t110.5 -16.5q62 0 97 23.5t35 63.5q0 33 -23.5 55.5t-62.5 40t-85 34.5q-67 25 -136 58t-116 90t-47 151q0 90 47 156.5t133 103t200 36.5q185 0 369 -93l-81 -227q-32 25 -80 46.5t-98.5 34.5t-90.5 13q-49 0 -76.5 -20
t-27.5 -55q0 -26 19 -46.5t56.5 -39t92.5 -39.5q68 -25 137.5 -59.5t117 -92t47.5 -152.5q0 -86 -43.5 -152.5t-122.5 -106.5t-186 -48l-34 -75q75 -8 119 -49t44 -106q0 -77 -61 -127.5t-157 -50.5q-72 0 -147 32l43 112q39 -19 80 -19q46 0 74.5 23.5t28.5 59.5
q0 37 -30.5 60t-86.5 23h-11t-12 -1l45 117q-88 5 -173 32t-160 72z" />
    <glyph glyph-name="Scaron" unicode="&#x160;" horiz-adv-x="1230" 
d="M776 1662h-233l-220 338h211l126 -220l126 220h210zM52 162l146 235q69 -56 133.5 -91.5t127.5 -52t129 -16.5q78 0 135 22t88.5 63t31.5 95q0 63 -40 106t-104.5 75.5t-139.5 62.5q-73 30 -146.5 65.5t-135 84.5t-99 119.5t-37.5 171.5q0 132 66.5 228t182.5 148t265 52
q105 0 218.5 -28t226.5 -85l-121 -249q-71 43 -153 68t-154 25q-65 0 -113.5 -20t-75.5 -55.5t-27 -83.5q0 -57 39 -98.5t101.5 -73.5t134.5 -64q74 -32 149.5 -70t138 -89.5t101 -123t38.5 -171.5q0 -132 -70 -231.5t-195 -155t-291 -55.5q-152 0 -291 49t-259 143z" />
    <glyph glyph-name="scaron" unicode="&#x161;" horiz-adv-x="914" 
d="M604 1162h-233l-221 338h212l125 -220l126 220h211zM72 86l63 244q30 -33 80.5 -61t109 -44.5t110.5 -16.5q62 0 97 23.5t35 63.5q0 33 -23.5 55.5t-62.5 40t-85 34.5q-67 25 -136 58t-116 90t-47 151q0 90 47 156.5t133 103t200 36.5q185 0 369 -93l-81 -227
q-32 25 -80 46.5t-98.5 34.5t-90.5 13q-49 0 -76.5 -20t-27.5 -54q0 -27 20 -48t59 -40t96 -41q71 -28 139 -63t112 -91t44 -147q0 -94 -50.5 -163.5t-142 -108t-214.5 -38.5q-205 0 -383 106z" />
    <glyph glyph-name="Tcedilla" unicode="&#x162;" horiz-adv-x="1233" 
d="M770 0h-93l-42 -92q75 -8 119 -49t44 -106q0 -77 -61 -127.5t-156 -50.5q-72 0 -147 32l42 112q39 -19 81 -19q45 0 73.5 23.5t28.5 59.5q0 37 -30.5 60t-86.5 23h-11t-12 -1l53 135h-110v1231h-442v269h1193v-269h-443v-1231z" />
    <glyph glyph-name="tcedilla" unicode="&#x163;" horiz-adv-x="881" 
d="M829 26q-115 -46 -222 -46q-13 0 -26 0.5t-25 2.5l-35 -75q75 -8 119.5 -49t44.5 -106q0 -77 -61 -127.5t-157 -50.5q-72 0 -147 32l43 112q39 -19 80 -19q46 0 74.5 23.5t28.5 59.5q0 37 -30.5 60t-86.5 23h-11t-12 -1l54 140q-107 38 -170 131t-63 222v386h-175v256
h190v250h272v-250h277v-256h-277v-334q0 -82 45 -127.5t112 -45.5q61 0 119 38z" />
    <glyph glyph-name="Tcaron" unicode="&#x164;" horiz-adv-x="1233" 
d="M735 1662h-234l-220 338h212l125 -220l126 220h211zM771 0h-308v1231h-443v269h1193v-269h-442v-1231z" />
    <glyph glyph-name="tcaron" unicode="&#x165;" horiz-adv-x="1132" 
d="M983 1070h-162l101 450h198zM821 26q-115 -46 -222 -46q-113 0 -199 47.5t-133.5 133t-47.5 197.5v386h-175v256h190v250h272v-250h277v-256h-277v-334q0 -82 45 -127.5t111 -45.5q62 0 120 38z" />
    <glyph glyph-name="Tbar" unicode="&#x166;" horiz-adv-x="1233" 
d="M964 592h-194v-592h-308v592h-193v163h193v476h-442v269h1193v-269h-443v-476h194v-163z" />
    <glyph glyph-name="tbar" unicode="&#x167;" horiz-adv-x="881" 
d="M788 458h-273v-78q-1 -65 42.5 -107t111.5 -42q63 0 121 38l39 -243q-115 -46 -222 -46q-113 0 -198.5 47.5t-133.5 133t-48 197.5v100h-175v112h175v174h-175v256h190v250h272v-250h277v-257h-277v-174h274v-111z" />
    <glyph glyph-name="Utilde" unicode="&#x168;" horiz-adv-x="1554" 
d="M1152 1967q-3 -126 -57.5 -191.5t-157.5 -65.5q-62 0 -104 21.5t-81 49.5q-28 22 -58.5 38t-70.5 16q-104 0 -115 -117h-106q7 259 217 259q68 0 113 -22.5t81 -48.5q31 -22 61 -38t67 -16q94 0 105 115h106zM1432 1500v-825q0 -220 -78.5 -378t-225 -242.5t-351.5 -84.5
q-204 0 -351 84.5t-225.5 242.5t-78.5 378v825h308v-787q0 -157 39.5 -262t116.5 -158.5t191 -53.5t191 53.5t116.5 158.5t39.5 262v787h308z" />
    <glyph glyph-name="utilde" unicode="&#x169;" 
d="M978 1467q-4 -126 -58 -191.5t-157 -65.5q-63 0 -104.5 21t-79.5 49q-29 22 -59.5 38.5t-69.5 16.5q-105 0 -116 -117h-106q7 259 218 259q68 0 112 -23t82 -49q30 -20 59.5 -36.5t66.5 -16.5q95 0 106 115h106zM1100 0h-233l-10 160q-53 -88 -140.5 -134t-204.5 -46
q-192 0 -301 118t-109 324v578h287v-512q0 -117 55.5 -183.5t151.5 -66.5q100 0 158.5 69.5t58.5 188.5v504h287v-1000z" />
    <glyph glyph-name="Umacron" unicode="&#x16a;" horiz-adv-x="1554" 
d="M1116 1752h-679v163h679v-163zM1432 1500v-825q0 -220 -78.5 -378t-225 -242.5t-351.5 -84.5q-204 0 -351 84.5t-225.5 242.5t-78.5 378v825h308v-787q0 -157 39.5 -262t116.5 -158.5t191 -53.5t191 53.5t116.5 158.5t39.5 262v787h308z" />
    <glyph glyph-name="umacron" unicode="&#x16b;" 
d="M942 1252h-678v163h678v-163zM1100 0h-233l-10 160q-53 -88 -140.5 -134t-204.5 -46q-192 0 -301 118t-109 324v578h287v-512q0 -117 55.5 -183.5t151.5 -66.5q100 0 158.5 69.5t58.5 188.5v504h287v-1000z" />
    <glyph glyph-name="Ubreve" unicode="&#x16c;" horiz-adv-x="1554" 
d="M1095 2000q0 -95 -40.5 -168t-112.5 -114.5t-165 -41.5q-94 0 -165.5 41.5t-112 114.5t-40.5 168h162q0 -86 42.5 -136.5t113.5 -50.5q72 0 114.5 50.5t42.5 136.5h161zM1432 1500v-825q0 -220 -78.5 -378t-225 -242.5t-351.5 -84.5q-204 0 -351 84.5t-225.5 242.5
t-78.5 378v825h308v-787q0 -157 39.5 -262t116.5 -158.5t191 -53.5t191 53.5t116.5 158.5t39.5 262v787h308z" />
    <glyph glyph-name="ubreve" unicode="&#x16d;" 
d="M920 1500q0 -95 -40 -168t-111.5 -114.5t-165.5 -41.5q-93 0 -165 41.5t-112.5 114.5t-40.5 168h161q0 -86 43 -136.5t114 -50.5q72 0 114 50.5t42 136.5h161zM1100 0h-233l-10 160q-53 -88 -140.5 -134t-204.5 -46q-192 0 -301 118t-109 324v578h287v-512
q0 -117 55.5 -183.5t151.5 -66.5q100 0 158.5 69.5t58.5 188.5v504h287v-1000z" />
    <glyph glyph-name="Uring" unicode="&#x16e;" horiz-adv-x="1554" 
d="M777 1590q-100 0 -161.5 59.5t-61.5 155.5q0 97 61.5 156t161.5 59t161 -59t61 -156q0 -96 -61 -155.5t-161 -59.5zM777 1705q45 0 72 27.5t27 72.5t-27 73t-72 28t-72 -28t-27 -73t27 -72.5t72 -27.5zM1432 1500v-825q0 -219 -78.5 -377.5t-225 -243t-351.5 -84.5
q-204 0 -351 84.5t-225.5 243t-78.5 377.5v825h308v-787q0 -157 39.5 -262t116.5 -158.5t191 -53.5t191 53.5t116.5 158.5t39.5 262v787h308z" />
    <glyph glyph-name="uring" unicode="&#x16f;" 
d="M603 1090q-100 0 -161 59.5t-61 155.5q0 97 61 156t161 59q101 0 161.5 -59t60.5 -156q0 -96 -60.5 -155.5t-161.5 -59.5zM603 1205q45 0 72 27.5t27 72.5t-27 73t-72 28t-72 -28t-27 -73t27 -72.5t72 -27.5zM1100 0h-233l-10 160q-53 -88 -140.5 -134t-204.5 -46
q-192 0 -301 118t-109 324v578h287v-512q0 -117 55.5 -183.5t151.5 -66.5q100 0 158.5 69.5t58.5 188.5v504h287v-1000z" />
    <glyph glyph-name="Uhungarumlaut" unicode="&#x170;" horiz-adv-x="1554" 
d="M644 1662h-204l142 338h260zM1047 1662h-203l141 338h260zM1432 1500v-825q0 -220 -78.5 -378t-225 -242.5t-351.5 -84.5q-204 0 -351 84.5t-225.5 242.5t-78.5 378v825h308v-787q0 -157 39.5 -262t116.5 -158.5t191 -53.5t191 53.5t116.5 158.5t39.5 262v787h308z" />
    <glyph glyph-name="uhungarumlaut" unicode="&#x171;" 
d="M486 1162h-204l142 338h260zM889 1162h-204l142 338h260zM1100 0h-233l-10 160q-53 -88 -140.5 -134t-204.5 -46q-192 0 -301 118t-109 324v578h287v-512q0 -117 55.5 -183.5t151.5 -66.5q100 0 158.5 69.5t58.5 188.5v504h287v-1000z" />
    <glyph glyph-name="Uogonek" unicode="&#x172;" horiz-adv-x="1554" 
d="M1432 1500v-825q0 -261 -110.5 -434t-310.5 -237q-67 -27 -108 -76t-41 -97q0 -43 33 -72.5t89 -31.5l-21 -143q-111 0 -177 50.5t-66 131.5q0 60 36.5 114.5t100.5 93.5q-20 -2 -40 -3t-40 -1q-204 0 -351 84.5t-225.5 242.5t-78.5 378v825h308v-787q0 -157 39.5 -262
t116.5 -158.5t191 -53.5t191 53.5t116.5 158.5t39.5 262v787h308z" />
    <glyph glyph-name="uogonek" unicode="&#x173;" 
d="M1100 0h-25q-63 -28 -101.5 -75.5t-38.5 -93.5q0 -43 33 -72.5t89 -31.5l-21 -143q-111 0 -176.5 50.5t-65.5 131.5q0 70 50 133.5t136 100.5h-113l-10 160q-53 -88 -140.5 -134t-204.5 -46q-192 0 -301 118t-109 324v578h287v-512q0 -117 55.5 -183.5t151.5 -66.5
q100 0 158.5 69.5t58.5 188.5v504h287v-1000z" />
    <glyph glyph-name="Wcircumflex" unicode="&#x174;" horiz-adv-x="2207" 
d="M1441 1662h-211l-127 221l-126 -221h-210l220 338h234zM1693 0h-283l-305 992l-306 -992h-283l-488 1500h324l305 -997l306 997h284l304 -995l305 995h323z" />
    <glyph glyph-name="wcircumflex" unicode="&#x175;" horiz-adv-x="1677" 
d="M1176 1162h-212l-125 221l-127 -221h-211l220 338h235zM1326 0h-328l-160 617l-160 -617h-328l-322 1000h303l179 -697l203 697h251l203 -700l179 700h303z" />
    <glyph glyph-name="Ycircumflex" unicode="&#x176;" horiz-adv-x="1475" 
d="M1075 1662h-212l-125 221l-127 -221h-211l220 338h235zM891 0h-308v641l-567 859h374l346 -588l349 588h374l-568 -860v-640z" />
    <glyph glyph-name="ycircumflex" unicode="&#x177;" horiz-adv-x="1291" 
d="M1012 1162h-212l-125 221l-126 -221h-211l220 338h234zM642 -500h-305l208 501l-517 999h336l316 -672l279 672h304z" />
    <glyph glyph-name="Ydieresis" unicode="&#x178;" horiz-adv-x="1476" 
d="M892 0h-308v641l-568 859h374l346 -588l350 588h374l-568 -860v-640zM967 1713q-54 0 -87 33t-33 87q0 53 33 86.5t87 33.5t87 -33.5t33 -86.5q0 -54 -33 -87t-87 -33zM510 1713q-54 0 -87 33t-33 87q0 53 33 86.5t87 33.5q53 0 86.5 -33.5t33.5 -86.5q0 -54 -33.5 -87
t-86.5 -33z" />
    <glyph glyph-name="Zacute" unicode="&#x179;" horiz-adv-x="1286" 
d="M746 1662h-203l141 338h261zM1216 0h-1146v228l729 1003h-689v269h1093v-238l-721 -993h734v-269z" />
    <glyph glyph-name="zacute" unicode="&#x17a;" horiz-adv-x="1105" 
d="M655 1162h-203l141 338h261zM1045 0h-985v144l498 599h-471v257h923v-122l-517 -621h552v-257z" />
    <glyph glyph-name="Zdotaccent" unicode="&#x17b;" horiz-adv-x="1286" 
d="M1216 0h-1146v228l729 1003h-689v269h1093v-238l-721 -993h734v-269zM672 1702q-54 0 -86.5 33.5t-32.5 87.5q0 53 32.5 86t86.5 33t87.5 -33t33.5 -86q0 -54 -33.5 -87.5t-87.5 -33.5z" />
    <glyph glyph-name="zdotaccent" unicode="&#x17c;" horiz-adv-x="1106" 
d="M552 1208q-53 0 -85.5 32.5t-32.5 84.5q0 53 32.5 85t85.5 32t85.5 -32t32.5 -85q0 -52 -32.5 -84.5t-85.5 -32.5zM1046 0h-986v144l498 599h-471v257h923v-122l-517 -621h553v-257z" />
    <glyph glyph-name="Zcaron" unicode="&#x17d;" horiz-adv-x="1286" 
d="M781 1662h-234l-220 338h212l125 -220l126 220h211zM1216 0h-1146v228l729 1003h-689v269h1093v-238l-721 -993h734v-269z" />
    <glyph glyph-name="zcaron" unicode="&#x17e;" horiz-adv-x="1105" 
d="M690 1162h-234l-220 338h212l125 -220l126 220h211zM1045 0h-985v144l498 599h-471v257h923v-122l-518 -621h553v-257z" />
    <glyph glyph-name="longs" unicode="&#x17f;" horiz-adv-x="762" 
d="M430 0h-308v1106q0 198 107 311t293 113q99 0 212 -34l-63 -248q-42 13 -79 13q-74 0 -118 -48.5t-44 -132.5v-1080z" />
    <glyph glyph-name="florin" unicode="&#x192;" horiz-adv-x="1256" 
d="M1059 743h-294l-30 -415q-7 -106 -60 -186.5t-140.5 -126t-197.5 -45.5q-86 0 -170.5 27.5t-150.5 75.5l120 220q63 -66 147 -66q71 0 119 47.5t53 122.5l24 346h-219l18 257h220l12 173q8 106 60.5 186.5t140 125.5t197.5 45q86 0 170.5 -27t151.5 -76l-120 -220
q-64 66 -147 66q-71 0 -119 -47.5t-53 -123.5l-8 -102h295z" />
    <glyph glyph-name="Acaron" unicode="&#x1cd;" horiz-adv-x="1568" 
d="M347 0h-323l598 1500h325l597 -1500h-323l-123 322h-628zM571 592h427l-214 556zM901 1662h-233l-220 338h211l126 -220l125 220h212z" />
    <glyph glyph-name="acaron" unicode="&#x1ce;" horiz-adv-x="1116" 
d="M1014 0h-250l-15 119q-55 -66 -136 -102.5t-178 -36.5q-105 0 -187 40.5t-129 112t-47 162.5q0 96 51 169t140.5 114.5t203.5 41.5q67 0 134.5 -15t125.5 -42v26q0 60 -33.5 103.5t-92 67.5t-130.5 24q-69 0 -136.5 -22t-124.5 -66l-78 219q101 52 204.5 78.5t200.5 26.5
q146 0 253 -57.5t165.5 -162t58.5 -247.5v-553zM498 201q57 0 109 25t84.5 68t34.5 95v7q-44 30 -97.5 46.5t-108.5 16.5q-82 0 -134 -36t-52 -93q0 -37 21.5 -66.5t58.5 -46t84 -16.5zM675 1162h-233l-220 338h211l126 -220l125 220h212z" />
    <glyph glyph-name="Scommaaccent" unicode="&#x218;" horiz-adv-x="1230" 
d="M52 162l146 235q69 -56 133.5 -91.5t127.5 -52t129 -16.5q78 0 135 22t88.5 63t31.5 95q0 63 -40 106t-104.5 75.5t-139.5 62.5q-73 30 -146.5 65.5t-135 84.5t-99 119.5t-37.5 171.5q0 132 66.5 228t182.5 148t265 52q105 0 218.5 -28t226.5 -85l-121 -249
q-71 43 -153 68t-154 25q-65 0 -113.5 -20t-75.5 -55.5t-27 -83.5q0 -57 39 -98.5t102 -74t136 -64.5t148 -69.5t138 -89t101 -123t38 -171.5q0 -132 -70 -231.5t-195 -155t-291 -55.5q-152 0 -291 49t-259 143zM564 -519l-97 87q46 35 70 90t24 114q0 80 -41 141l207 44
q25 -71 25 -145q0 -107 -50.5 -196.5t-137.5 -134.5z" />
    <glyph glyph-name="scommaaccent" unicode="&#x219;" horiz-adv-x="914" 
d="M72 86l63 244q30 -33 80.5 -61t109 -44.5t110.5 -16.5q62 0 97 23.5t35 63.5q0 33 -23.5 55.5t-62.5 40t-85 34.5q-67 25 -136 58t-116 90t-47 151q0 90 47 156.5t133 103t200 36.5q185 0 369 -93l-81 -227q-32 25 -80 46.5t-98.5 34.5t-90.5 13q-49 0 -76.5 -20
t-27.5 -55q0 -26 19 -46.5t56.5 -39t92.5 -39.5q68 -25 137.5 -59.5t117 -92t47.5 -152.5q0 -93 -50.5 -163t-142 -108.5t-214.5 -38.5q-205 0 -383 106zM412 -519l-97 87q45 35 69 90t24 114q0 80 -41 141l207 44q26 -71 26 -144q0 -107 -51 -197t-137 -135z" />
    <glyph glyph-name="Tcommaaccent" unicode="&#x21a;" horiz-adv-x="1233" 
d="M770 0h-308v1231h-442v269h1193v-269h-443v-1231zM563 -519l-96 87q45 35 69 90t24 114q0 80 -41 141l207 44q25 -70 25 -144q0 -107 -50.5 -197t-137.5 -135z" />
    <glyph glyph-name="uni021B" unicode="&#x21b;" horiz-adv-x="881" 
d="M829 26q-115 -46 -222 -46q-113 0 -199 47.5t-133.5 133t-47.5 197.5v386h-175v256h190v250h272v-250h277v-256h-277v-334q0 -82 45 -127.5t111 -45.5q61 0 120 38zM399 -519l-97 87q45 35 69 90t24 114q0 80 -41 141l207 44q25 -70 25 -144q0 -107 -50.5 -197
t-136.5 -135z" />
    <glyph glyph-name="dotlessj" unicode="&#x237;" horiz-adv-x="527" 
d="M-147 -502v226q16 -3 31 -4t29 -1q100 0 157.5 65.5t57.5 181.5v1034h287v-1047q0 -233 -102 -353t-298 -120q-37 0 -77 4.5t-85 13.5z" />
    <glyph glyph-name="circumflex" unicode="&#x2c6;" horiz-adv-x="918" 
d="M796 1162h-211l-126 221l-126 -221h-211l220 338h234z" />
    <glyph glyph-name="caron" unicode="&#x2c7;" horiz-adv-x="918" 
d="M575 1162h-233l-220 338h211l126 -220l125 220h212z" />
    <glyph glyph-name="macronmod" unicode="&#x2c9;" horiz-adv-x="922" 
d="M800 1241h-678v163h678v-163z" />
    <glyph glyph-name="breve" unicode="&#x2d8;" horiz-adv-x="879" 
d="M757 1500q0 -95 -40 -168t-111.5 -114.5t-165.5 -41.5t-165.5 41.5t-112 114.5t-40.5 168h161q0 -86 43 -136.5t114 -50.5q72 0 114 50.5t42 136.5h161z" />
    <glyph glyph-name="dotaccent" unicode="&#x2d9;" horiz-adv-x="479" 
d="M239 1202q-54 0 -86.5 33.5t-32.5 87.5q0 53 32.5 86t86.5 33t87.5 -33t33.5 -86q0 -54 -33.5 -87.5t-87.5 -33.5z" />
    <glyph glyph-name="ring" unicode="&#x2da;" horiz-adv-x="689" 
d="M345 1090q-100 0 -161.5 59.5t-61.5 155.5q0 97 61 156t162 59q100 0 161 -59t61 -156q0 -96 -61 -155.5t-161 -59.5zM344 1205q45 0 72.5 27.5t27.5 72.5t-27.5 73t-72.5 28q-44 0 -71.5 -28t-27.5 -73t27 -72.5t72 -27.5z" />
    <glyph glyph-name="ogonek" unicode="&#x2db;" horiz-adv-x="535" 
d="M364 -416q-110 0 -176 50.5t-66 131.5q0 72 52.5 136.5t142.5 101.5h96q-67 -27 -108.5 -76t-41.5 -97q0 -43 33.5 -72.5t89.5 -31.5z" />
    <glyph glyph-name="tilde" unicode="&#x2dc;" horiz-adv-x="994" 
d="M872 1467q-3 -126 -57.5 -191.5t-157.5 -65.5q-62 0 -104 21t-79 49q-30 22 -60 38.5t-70 16.5q-105 0 -116 -117h-106q7 259 218 259q68 0 112.5 -23t81.5 -49q31 -20 60 -36.5t66 -16.5q95 0 106 115h106z" />
    <glyph glyph-name="hungarumlaut" unicode="&#x2dd;" horiz-adv-x="902" 
d="M261 1162h-205l142 338h261zM664 1162h-204l142 338h260z" />
    <glyph glyph-name="gravecomb" unicode="&#x300;" horiz-adv-x="516" 
d="M454 1162h-204l-198 338h260z" />
    <glyph glyph-name="acutecomb" unicode="&#x301;" horiz-adv-x="516" 
d="M266 1162h-204l142 338h260z" />
    <glyph glyph-name="circumflexcomb" unicode="&#x302;" horiz-adv-x="918" 
d="M796 1162h-211l-126 221l-126 -221h-211l220 338h234z" />
    <glyph glyph-name="tildecomb" unicode="&#x303;" horiz-adv-x="994" 
d="M872 1467q-3 -126 -57.5 -191.5t-157.5 -65.5q-62 0 -104 21t-79 49q-30 22 -60 38.5t-70 16.5q-105 0 -116 -117h-106q7 259 218 259q68 0 112.5 -23t81.5 -49q31 -20 60 -36.5t66 -16.5q95 0 106 115h106z" />
    <glyph glyph-name="macroncomb" unicode="&#x304;" horiz-adv-x="922" 
d="M800 1252h-678v163h678v-163z" />
    <glyph glyph-name="brevecomb" unicode="&#x306;" horiz-adv-x="879" 
d="M757 1500q0 -95 -40 -168t-111.5 -114.5t-165.5 -41.5t-165.5 41.5t-112 114.5t-40.5 168h161q0 -86 43 -136.5t114 -50.5q72 0 114 50.5t42 136.5h161z" />
    <glyph glyph-name="dotaccentcomb" unicode="&#x307;" horiz-adv-x="479" 
d="M239 1202q-54 0 -86.5 33.5t-32.5 87.5q0 53 32.5 86t86.5 33t87.5 -33t33.5 -86q0 -54 -33.5 -87.5t-87.5 -33.5z" />
    <glyph glyph-name="dieresiscomb" unicode="&#x308;" horiz-adv-x="916" 
d="M687 1213q-54 0 -87 33t-33 87q0 53 33 86.5t87 33.5t87 -33.5t33 -86.5q0 -54 -33 -87t-87 -33zM230 1213q-54 0 -87 33t-33 87q0 53 33 86.5t87 33.5q53 0 86.5 -33.5t33.5 -86.5q0 -54 -33.5 -87t-86.5 -33z" />
    <glyph glyph-name="ringcomb" unicode="&#x30a;" horiz-adv-x="689" 
d="M345 1090q-100 0 -161.5 59.5t-61.5 155.5q0 97 61 156t162 59q100 0 161 -59t61 -156q0 -96 -61 -155.5t-161 -59.5zM344 1205q45 0 72.5 27.5t27.5 72.5t-27.5 73t-72.5 28q-44 0 -71.5 -28t-27.5 -73t27 -72.5t72 -27.5z" />
    <glyph glyph-name="hungarumlautcomb" unicode="&#x30b;" horiz-adv-x="902" 
d="M261 1162h-205l142 338h261zM664 1162h-204l142 338h260z" />
    <glyph glyph-name="caroncomb" unicode="&#x30c;" horiz-adv-x="918" 
d="M575 1162h-233l-220 338h211l126 -220l125 220h212z" />
    <glyph glyph-name="commaturnedabovecomb" unicode="&#x312;" horiz-adv-x="273" 
 />
    <glyph glyph-name="commaaccent" unicode="&#x326;" horiz-adv-x="528" 
d="M219 -519l-97 87q46 35 69.5 90t23.5 114q0 80 -41 141l207 44q25 -70 25 -144q0 -107 -50.5 -197t-136.5 -135z" />
    <glyph glyph-name="cedillacomb" unicode="&#x327;" horiz-adv-x="551" 
d="M92 -393l42 112q39 -19 81 -19q45 0 74 23.5t29 59.5q0 37 -30.5 60t-86.5 23h-11t-12 -1l55 142h105l-44 -99q74 -8 118.5 -49t44.5 -106q0 -77 -61.5 -127.5t-156.5 -50.5q-72 0 -147 32z" />
    <glyph glyph-name="ogonekcomb" unicode="&#x328;" horiz-adv-x="535" 
d="M364 -416q-110 0 -176 50.5t-66 131.5q0 72 52.5 136.5t142.5 101.5h96q-67 -27 -108.5 -76t-41.5 -97q0 -43 33.5 -72.5t89.5 -31.5z" />
    <glyph glyph-name="uni0394" unicode="&#x394;" horiz-adv-x="1632" 
d="M1608 0h-1584l612 1500h360zM460 269h711l-355 909z" />
    <glyph glyph-name="uni03A9" unicode="&#x3a9;" horiz-adv-x="1653" 
d="M1611 0h-639v217q91 52 159 137.5t106 193.5t38 223q0 144 -57 254.5t-158 173t-233 62.5q-131 0 -232.5 -63t-158.5 -173.5t-57 -254.5q0 -115 37.5 -222.5t106 -193.5t158.5 -137v-217h-639v269h278q-80 72 -137.5 162t-88 193.5t-30.5 214.5q0 204 97.5 359
t269.5 243.5t396 88.5q225 0 396.5 -88.5t269 -243.5t97.5 -359q0 -111 -30.5 -214.5t-88 -193.5t-138.5 -162h278v-269z" />
    <glyph glyph-name="pi" unicode="&#x3c0;" horiz-adv-x="1400" 
d="M1358 142q-42 -76 -110.5 -119t-149.5 -43q-79 0 -142.5 40t-100.5 109t-37 155v482h-226q5 -81 7 -162t2 -162q0 -111 -4.5 -221t-14.5 -221h-287q10 111 14.5 220.5t4.5 219.5q0 82 -2 163t-7 163h-28q-111 0 -212 -68l-53 218q124 84 267 84h1031v-234h-205v-511
q0 -51 28 -84t72 -33q59 0 102 56z" />
    <glyph glyph-name="Wgrave" unicode="&#x1e80;" horiz-adv-x="2207" 
d="M1201 1662h-204l-198 338h261zM1693 0h-283l-305 992l-305 -992h-284l-488 1500h324l305 -997l306 997h284l304 -995l305 995h323z" />
    <glyph glyph-name="wgrave" unicode="&#x1e81;" horiz-adv-x="1677" 
d="M933 1162h-204l-198 338h260zM1326 0h-328l-160 617l-159 -617h-328l-323 1000h303l179 -697l203 697h251l203 -700l179 700h303z" />
    <glyph glyph-name="Wacute" unicode="&#x1e82;" horiz-adv-x="2207" 
d="M1216 1662h-205l142 338h260zM1693 0h-283l-305 992l-305 -992h-284l-488 1500h324l305 -997l306 997h284l304 -995l305 995h323z" />
    <glyph glyph-name="wacute" unicode="&#x1e83;" horiz-adv-x="1677" 
d="M952 1162h-204l141 338h261zM1326 0h-328l-160 617l-159 -617h-328l-323 1000h303l179 -697l203 697h251l203 -700l179 700h303z" />
    <glyph glyph-name="Wdieresis" unicode="&#x1e84;" horiz-adv-x="2207" 
d="M1693 0h-283l-305 992l-306 -992h-283l-488 1500h323l306 -997l306 997h283l305 -995l304 995h324zM1333 1713q-54 0 -87 33t-33 87q0 53 33 86.5t87 33.5t87 -33.5t33 -86.5q0 -54 -33 -87t-87 -33zM876 1713q-54 0 -87 33t-33 87q0 53 33 86.5t87 33.5q53 0 86.5 -33.5
t33.5 -86.5q0 -54 -33.5 -87t-86.5 -33z" />
    <glyph glyph-name="wdieresis" unicode="&#x1e85;" horiz-adv-x="1678" 
d="M1327 0h-328l-160 617l-160 -617h-328l-323 1000h304l179 -697l202 697h251l203 -700l179 700h304zM1068 1213q-54 0 -87 33t-33 87q0 53 33 86.5t87 33.5t87 -33.5t33 -86.5q0 -54 -33 -87t-87 -33zM611 1213q-54 0 -87 33t-33 87q0 53 33 86.5t87 33.5q53 0 86.5 -33.5
t33.5 -86.5q0 -54 -33.5 -87t-86.5 -33z" />
    <glyph glyph-name="Germandbls" unicode="&#x1e9e;" horiz-adv-x="1344" 
d="M431 0h-308v1010q0 152 67 269.5t185 184t271 66.5q125 0 228.5 -46.5t172.5 -129.5t91 -194q9 -45 -6 -86.5t-41 -69.5l-263 -292l-18 84q143 5 248.5 -43t163.5 -138t58 -209q0 -126 -64 -224.5t-177 -155t-257 -56.5q-62 0 -132.5 10.5t-135.5 30.5l53 215
q48 -18 85.5 -26.5t73.5 -8.5q76 0 131 28t85 80t30 121q0 75 -34.5 128.5t-98 81t-150.5 24.5l-69 110l287 332q-11 45 -41.5 82.5t-77.5 60t-110 22.5q-77 0 -133 -37t-85 -103.5t-29 -157.5v-963z" />
    <glyph glyph-name="Ygrave" unicode="&#x1ef2;" horiz-adv-x="1476" 
d="M892 0h-308v641l-568 859h374l346 -588l350 588h374l-568 -860v-640zM939 1662h-204l-198 338h261z" />
    <glyph glyph-name="ygrave" unicode="&#x1ef3;" horiz-adv-x="1292" 
d="M643 -500h-306l208 501l-505 999h324l317 -672l278 672h305zM847 1162h-204l-198 338h261z" />
    <glyph glyph-name="uni2002" unicode="&#x2002;" horiz-adv-x="1354" 
 />
    <glyph glyph-name="uni2009" unicode="&#x2009;" horiz-adv-x="670" 
 />
    <glyph glyph-name="uni200B" unicode="&#x200b;" horiz-adv-x="330" 
 />
    <glyph glyph-name="endash" unicode="&#x2013;" horiz-adv-x="1264" 
d="M1142 398h-1020v219h1020v-219z" />
    <glyph glyph-name="emdash" unicode="&#x2014;" horiz-adv-x="2284" 
d="M2162 398h-2040v219h2040v-219z" />
    <glyph glyph-name="quoteleft" unicode="&#x2018;" horiz-adv-x="543" 
d="M324 1070h-202l136 450h167z" />
    <glyph glyph-name="quoteright" unicode="&#x2019;" horiz-adv-x="543" 
d="M284 1070h-162l101 450h198z" />
    <glyph glyph-name="quotesinglbase" unicode="&#x201a;" horiz-adv-x="482" 
d="M274 -240h-192l74 432h234z" />
    <glyph glyph-name="quotedblleft" unicode="&#x201c;" horiz-adv-x="937" 
d="M320 1070h-198l137 450h162zM714 1070h-199l137 450h163z" />
    <glyph glyph-name="quotedblright" unicode="&#x201d;" horiz-adv-x="936" 
d="M678 1070h-163l101 450h198zM285 1070h-163l101 450h198z" />
    <glyph glyph-name="quotedblbase" unicode="&#x201e;" horiz-adv-x="879" 
d="M671 -240h-192l74 432h234zM274 -240h-192l74 432h234z" />
    <glyph glyph-name="dagger" unicode="&#x2020;" horiz-adv-x="1176" 
d="M742 0h-308l26 836l-338 -25v269l338 -25l-26 445h308l-26 -445l338 25v-269l-338 25z" />
    <glyph glyph-name="daggerdbl" unicode="&#x2021;" horiz-adv-x="1176" 
d="M742 0h-308l25 452l-337 -32v247l337 -33l-3 113l3 119l-337 -33v247l337 -32l-25 452h308l-26 -452l338 32v-247l-338 33l4 -119l-4 -113l338 33v-247l-338 32z" />
    <glyph glyph-name="bullet" unicode="&#x2022;" horiz-adv-x="574" 
d="M287 515q-79 0 -132 52t-53 133q0 80 53 132.5t132 52.5q81 0 133 -52.5t52 -132.5q0 -81 -52 -133t-133 -52z" />
    <glyph glyph-name="ellipsis" unicode="&#x2026;" horiz-adv-x="1345" 
d="M242 -20q-58 0 -94 36t-36 94q0 59 36 95t94 36q59 0 95 -36t36 -95q0 -58 -36 -94t-95 -36zM672 -20q-58 0 -94 36t-36 94q0 59 36 95t94 36q59 0 95 -36t36 -95q0 -58 -36 -94t-95 -36zM1102 -20q-58 0 -94 36t-36 94q0 59 36 95t94 36q59 0 95 -36t36 -95
q0 -58 -36 -94t-95 -36z" />
    <glyph glyph-name="perthousand" unicode="&#x2030;" horiz-adv-x="2436" 
d="M391 873q-152 0 -245.5 89t-93.5 234q0 146 93.5 235t245.5 89q153 0 246.5 -89t93.5 -235q0 -145 -93.5 -234t-246.5 -89zM452 1h-237l967 1500h237zM391 1033q63 0 102 45.5t39 118.5q0 74 -39 118.5t-102 44.5t-101.5 -44.5t-38.5 -118.5q0 -73 38.5 -118.5
t101.5 -45.5zM2045 -18q-152 0 -245.5 89t-93.5 234q0 146 93.5 235t245.5 89q153 0 246 -89t93 -235q0 -145 -93.5 -234t-245.5 -89zM1235 -21q-152 0 -245.5 89.5t-93.5 234.5q0 146 93.5 235t245.5 89q153 0 246 -89t93 -235q0 -145 -93.5 -234.5t-245.5 -89.5zM2045 143
q63 0 101.5 44.5t38.5 117.5q0 74 -38.5 119.5t-101.5 45.5q-64 0 -102.5 -45.5t-38.5 -119.5q0 -73 38.5 -117.5t102.5 -44.5zM1235 140q63 0 101.5 45t38.5 118q0 74 -38.5 119t-101.5 45q-64 0 -102 -45t-38 -119q0 -73 38 -118t102 -45z" />
    <glyph glyph-name="minute" unicode="&#x2032;" horiz-adv-x="452" 
d="M303 1085h-154l-27 435h208z" />
    <glyph glyph-name="second" unicode="&#x2033;" horiz-adv-x="790" 
d="M303 1085h-154l-27 435h208zM641 1085h-154l-27 435h208z" />
    <glyph glyph-name="guilsinglleft" unicode="&#x2039;" horiz-adv-x="781" 
d="M659 114h-271l-346 404l346 404h271l-354 -404z" />
    <glyph glyph-name="guilsinglright" unicode="&#x203a;" horiz-adv-x="781" 
d="M393 114h-271l354 404l-354 404h271l346 -404z" />
    <glyph glyph-name="fraction" unicode="&#x2044;" horiz-adv-x="1220" 
d="M192 0h-180l1023 1540h173z" />
    <glyph glyph-name="four.superior" unicode="&#x2074;" horiz-adv-x="705" 
d="M571 730h-163v157h-366v124l371 489h158v-471h92v-142h-92v-157zM408 1029v274l-207 -274h207z" />
    <glyph glyph-name="franc" unicode="&#x20a3;" horiz-adv-x="1218" 
d="M837 258h-360v-258h-308v258h-147v159h147v1083h937v-269h-629v-341h589v-270h-589v-203h360v-159z" />
    <glyph glyph-name="uni20A8" unicode="&#x20a8;" horiz-adv-x="1187" 
d="M1065 1340h-280q50 -42 82 -96t42 -118h153v-117h-149q-10 -88 -59 -160.5t-128 -122.5t-182 -72l431 -654h-319l-402 637h-132v160h188q75 0 134.5 27t98.5 74.5t51 110.5h-472v117h472q-11 62 -48 110t-94 76t-129 28h-201v160h943v-160z" />
    <glyph glyph-name="Euro" unicode="&#x20ac;" horiz-adv-x="1080" 
d="M873 822h-377q-2 -19 -3.5 -35.5t-1.5 -36.5t1.5 -36.5t3.5 -35.5h361l-15 -131h-313q35 -94 102.5 -163.5t163 -107t213.5 -37.5v-269q-211 0 -378.5 71t-278 201t-152.5 305h-157l15 131h124q-3 22 -4.5 39t-1.5 39q0 17 1 33t3 33h-137l15 131h142q42 176 152.5 305.5
t278 200.5t378.5 71v-269q-118 0 -213.5 -37.5t-163 -106.5t-102.5 -164h359z" />
    <glyph glyph-name="uni2113" unicode="&#x2113;" horiz-adv-x="1139" 
d="M1032 368q-23 -185 -129 -291.5t-266 -106.5q-115 0 -201 54.5t-133.5 153t-47.5 228.5v82q-42 -16 -86.5 -29.5t-91.5 -27.5l-49 189q63 17 119.5 35.5t107.5 37.5v417q0 126 49.5 220.5t138 147t205.5 52.5q112 0 196.5 -47.5t131 -133t46.5 -198.5
q0 -168 -112.5 -302.5t-351.5 -246.5v-145q0 -103 37.5 -161.5t101.5 -58.5q60 0 101 47.5t49 125.5zM558 826q107 66 158.5 140t51.5 159q0 66 -26.5 102t-75.5 36q-50 0 -79 -41t-29 -114v-282z" />
    <glyph glyph-name="trademark" unicode="&#x2122;" horiz-adv-x="1587" 
d="M389 780h-153v586h-210v134h572v-134h-209v-586zM1465 780h-153v497l-175 -376h-116l-174 375v-496h-152v720h191l193 -429l194 429h192v-720z" />
    <glyph glyph-name="estimated" unicode="&#x212e;" horiz-adv-x="1142" 
d="M1044 137q-102 -82 -200.5 -119.5t-214.5 -37.5q-164 0 -293 68.5t-202.5 187.5t-73.5 272q0 149 66.5 264.5t182.5 181.5t265 66t263.5 -65.5t179.5 -180.5t65 -264v-33h-798v-211q0 -59 47.5 -109t127 -79.5t174.5 -29.5q200 0 373 145zM858 545v208q0 55 -39 100
t-104.5 72t-143.5 27t-143 -27t-104.5 -72t-39.5 -100v-208h574z" />
    <glyph glyph-name="arrowup" unicode="&#x2191;" horiz-adv-x="1022" 
d="M703 400h-121l-92 936l-114 -736h-122l205 853l-23 -153l168 -300l43 200l-86 184z" />
    <glyph glyph-name="arrowdown" unicode="&#x2193;" horiz-adv-x="1022" 
d="M703 1100l-142 -984l86 184l-43 200l-168 -300l23 -153l-205 853h122l114 -736l92 936h121z" />
    <glyph glyph-name="partialdiff" unicode="&#x2202;" horiz-adv-x="1225" 
d="M324 1113l-200 92q57 151 180.5 238t281.5 87q129 0 238 -59t190 -165t125 -250t44 -314q0 -232 -75.5 -406t-213 -270t-322.5 -96q-146 0 -258.5 58.5t-177 162.5t-64.5 237q0 144 73 257t200.5 177.5t289.5 64.5q62 0 124.5 -10t123.5 -31q-19 117 -64.5 205.5
t-111 138.5t-146.5 50q-75 0 -138.5 -45t-98.5 -122zM889 662q-106 40 -199 40q-88 0 -156.5 -32.5t-107.5 -89t-39 -129.5q0 -60 27 -108t75 -76t109 -28q71 0 123 37t87.5 98t55 136t25.5 152z" />
    <glyph glyph-name="Delta" unicode="&#x2206;" horiz-adv-x="1223" 
d="M1081 0h-939l-100 174l423 956h293l423 -956zM363 257h497l-248 583z" />
    <glyph glyph-name="product" unicode="&#x220f;" horiz-adv-x="1873" 
d="M1598 -400h-308v1631h-708v-1631h-308v1631l-222 13v256h1769v-256l-223 -13v-1631z" />
    <glyph glyph-name="summation" unicode="&#x2211;" horiz-adv-x="1397" 
d="M1285 0h-1163v191l448 560l-448 558v191h1163v-269h-730l343 -481l-342 -481h729v-269z" />
    <glyph glyph-name="minus" unicode="&#x2212;" horiz-adv-x="1044" 
d="M922 392h-800v219h800v-219z" />
    <glyph glyph-name="divisionslash" unicode="&#x2215;" horiz-adv-x="941" 
d="M286 -20h-270l639 1540h270z" />
    <glyph glyph-name="uni2219" unicode="&#x2219;" horiz-adv-x="485" 
d="M242 400q-58 0 -94 36t-36 94t36 94t94 36q59 0 95 -36t36 -94t-36 -94t-95 -36z" />
    <glyph glyph-name="radical" unicode="&#x221a;" horiz-adv-x="1229" 
d="M791 0h-308l-245 592h-146v180h316l198 -516l290 1304h241z" />
    <glyph glyph-name="infinity" unicode="&#x221e;" horiz-adv-x="1902" 
d="M1422 84q-100 0 -178 32.5t-142 92t-123 140.5q-51 -68 -114.5 -129t-149.5 -98.5t-205 -37.5q-138 0 -243.5 52t-165 144t-59.5 210t57.5 209.5t158.5 143.5t231 52q107 0 190 -36t151.5 -100t130.5 -147q52 72 113 136.5t144 105.5t201 41q129 0 228.5 -52t156 -143.5
t56.5 -211.5q0 -117 -56 -208t-154.5 -143.5t-227.5 -52.5zM877 497q-52 74 -102 125.5t-106 78t-127 26.5q-75 0 -132 -28t-89 -78t-32 -116q0 -64 31.5 -113t88.5 -76t133 -27q79 0 138 28.5t106.5 76t90.5 103.5zM1379 252q68 0 121 28.5t83.5 78.5t30.5 116
q0 64 -29.5 112.5t-81.5 75.5t-122 27q-74 0 -129.5 -30t-100.5 -80t-88 -110q44 -59 90 -109t101 -79.5t125 -29.5z" />
    <glyph glyph-name="integral" unicode="&#x222b;" horiz-adv-x="760" 
d="M34 -320v269q116 0 171 62t55 186l-73 1104q0 252 134.5 385.5t404.5 133.5v-269q-119 0 -175 -62t-56 -186l73 -1106q0 -251 -133.5 -384t-400.5 -133z" />
    <glyph glyph-name="approxequal" unicode="&#x2248;" horiz-adv-x="1286" 
d="M1164 705q-140 -148 -278 -148q-55 0 -111 19.5t-126 52.5q-58 28 -118 51t-125 23q-140 0 -284 -144v207q147 144 287 144q57 0 114.5 -20t127.5 -54q58 -27 117 -50t121 -23q139 0 275 149v-207zM1164 233q-140 -148 -278 -148q-55 0 -111 20t-126 53q-58 27 -118 50.5
t-125 23.5q-140 0 -284 -144v207q147 144 286 144q65 0 125 -23.5t118 -50.5q70 -34 126 -53.5t111 -19.5q140 0 276 148v-207z" />
    <glyph glyph-name="notequal" unicode="&#x2260;" horiz-adv-x="1199" 
d="M448 -63h-161l86 206h-251v221h342l110 266h-452v221h543l86 206h161l-86 -206h251v-221h-342l-110 -266h452v-221h-543z" />
    <glyph glyph-name="lessequal" unicode="&#x2264;" horiz-adv-x="1163" 
d="M1041 299l-919 445v132l919 443v-238l-620 -271l620 -274v-237zM1041 0h-919v221h919v-221z" />
    <glyph glyph-name="greaterequal" unicode="&#x2265;" horiz-adv-x="1163" 
d="M122 299v237l620 274l-620 271v238l919 -443v-132zM1041 0h-919v221h919v-221z" />
    <glyph glyph-name="lozenge" unicode="&#x25ca;" horiz-adv-x="1223" 
d="M721 -20h-220l-459 680l460 681h220l459 -680zM611 249l260 412l-259 408l-261 -409z" />
    <glyph glyph-name="uniFEFF" unicode="&#xfeff;" horiz-adv-x="1354" 
 />
    </font>
</defs>
</svg>
