<?xml version="1.0" standalone="no"?>
<!DOCTYPE svg PUBLIC "-//W3C//DTD SVG 1.1//EN" "http://www.w3.org/Graphics/SVG/1.1/DTD/svg11.dtd" >
<svg xmlns="http://www.w3.org/2000/svg" xmlns:xlink="http://www.w3.org/1999/xlink" version="1.1">
<metadata>
Created by FontForge 20170731 at Fri Dec  2 17:29:53 2022
 By Aleksey,,,
Copyright 2020 The KumbhSans Project Authors (https://github.com/xconsau/KumbhSans)
</metadata>
<defs>
<font id="KumbhSans-SemiBold" horiz-adv-x="1223" >
  <font-face 
    font-family="Kumbh Sans SemiBold"
    font-weight="600"
    font-stretch="normal"
    units-per-em="2048"
    panose-1="0 0 0 0 0 0 0 0 0 0"
    ascent="1638"
    descent="-410"
    x-height="1000"
    cap-height="1500"
    bbox="-217 -520 2392 2020"
    underline-thickness="120"
    underline-position="-385"
    unicode-range="U+000D-FEFF"
  />
<missing-glyph horiz-adv-x="1198" 
d="M1059 0h-920v1500h920v-1500zM922 1420h-646l323 -576zM959 203v1119l-314 -560zM239 1322v-1119l314 559zM262 80h674l-337 601z" />
    <glyph glyph-name="f_f" unicode="ff" horiz-adv-x="1642" 
d="M495 0h-247v780h-175v220h175v175q0 104 47.5 184t130.5 125.5t190 45.5q67 0 136 -19t135 -59l-92 -192q-33 25 -69 37.5t-71 12.5q-69 0 -115 -49t-46 -134v-127h476v175q0 104 47.5 184t130.5 125.5t190 45.5q67 0 136 -19t135 -59l-93 -192q-67 50 -139 50
q-69 0 -115 -49t-46 -134v-127h302v-220h-302v-780h-246v780h-475v-780z" />
    <glyph glyph-name="fi" unicode="fi" horiz-adv-x="1298" 
d="M494 0h-246v780h-175v220h175v175q0 104 47.5 184t130.5 125.5t190 45.5q67 0 136 -19t135 -59l-93 -192q-32 25 -67.5 37.5t-69.5 12.5q-71 0 -117 -49t-46 -134v-127h671v-1000h-247v780h-424v-780z" />
    <glyph glyph-name="fl" unicode="fl" horiz-adv-x="1371" 
d="M1238 0h-246v1076q0 111 -68 178.5t-179 67.5t-181 -66.5t-70 -170.5v-85h302v-221h-302v-779h-246v779h-175v221h175v90q0 129 63.5 228t175 155.5t256.5 56.5q147 0 258.5 -58t174 -161.5t62.5 -239.5v-1071z" />
    <glyph glyph-name="f_f_i" unicode="ffi" horiz-adv-x="1982" 
d="M1179 0h-246v780h-439v-780h-246v780h-175v220h175v175q0 104 47.5 184t130.5 125.5t190 45.5q67 0 136 -19t135 -59l-92 -192q-33 25 -69 37.5t-71 12.5q-69 0 -114.5 -49t-45.5 -134v-127h438v175q0 104 47 184t130.5 125.5t190.5 45.5q67 0 136 -19t135 -59l-93 -192
q-33 25 -68 37.5t-70 12.5q-70 0 -116 -49t-46 -134v-127h670v-1000h-246v780h-424v-780z" />
    <glyph glyph-name="f_f_l" unicode="ffl" horiz-adv-x="2047" 
d="M1914 0h-246v1076q0 111 -68.5 178.5t-180.5 67.5q-110 0 -180 -66.5t-70 -170.5v-85h303v-221h-303v-779h-246v780h-429v-780h-246v780h-175v220h175v175q0 104 47.5 184t130.5 125.5t190 45.5q67 0 136 -19t135 -59l-92 -192q-33 25 -69 37.5t-71 12.5q-69 0 -115 -49
t-46 -134v-127h429v90q0 129 64 228t175.5 155.5t256.5 56.5q147 0 258.5 -58t174 -161.5t62.5 -239.5v-1071z" />
    <glyph glyph-name="longs_t" unicode="&#x17f;t" horiz-adv-x="1589" 
d="M494 0h-246v779h-175v221h175v90q0 129 63.5 228t175 155.5t256.5 56.5q147 0 258.5 -58t174 -161.5t62.5 -239.5v-688q0 -85 46 -134t117 -49q62 0 123 38l34 -213q-106 -45 -210 -45q-106 0 -186.5 45.5t-125 127.5t-44.5 189v734q0 111 -68 178.5t-179 67.5
t-181 -66.5t-70 -170.5v-85h302v-221h-302v-779z" />
    <glyph glyph-name=".notdef" horiz-adv-x="1198" 
d="M1059 0h-920v1500h920v-1500zM922 1420h-646l323 -576zM959 203v1119l-314 -560zM239 1322v-1119l314 559zM262 80h674l-337 601z" />
    <glyph glyph-name=".null" horiz-adv-x="0" 
 />
    <glyph glyph-name="nonmarkingreturn" horiz-adv-x="682" 
 />
    <glyph glyph-name="NULL" horiz-adv-x="850" 
 />
    <glyph glyph-name="NULL" horiz-adv-x="850" 
 />
    <glyph glyph-name="CR" unicode="&#xd;" horiz-adv-x="842" 
 />
    <glyph glyph-name="space" unicode=" " horiz-adv-x="476" 
 />
    <glyph glyph-name="exclam" unicode="!" horiz-adv-x="476" 
d="M302 409h-127l-38 1091h203zM238 -20q-53 0 -89 35.5t-36 87.5q0 50 36 85.5t89 35.5t89 -35.5t36 -85.5q0 -52 -36 -87.5t-89 -35.5z" />
    <glyph glyph-name="quotedbl" unicode="&#x22;" horiz-adv-x="794" 
d="M298 1085h-135l-24 435h183zM631 1085h-135l-24 435h183z" />
    <glyph glyph-name="numbersign" unicode="#" horiz-adv-x="1343" 
d="M1263 868h-228l-57 -319h234l-26 -166h-237l-68 -383h-197l67 383h-291l-67 -383h-198l68 383h-210l26 166h214l55 319h-217l27 166h220l82 466h198l-83 -466h291l83 466h197l-83 -466h227zM489 549h292l56 319h-291z" />
    <glyph glyph-name="dollar" unicode="$" horiz-adv-x="1084" 
d="M63 225l111 181q62 -48 119.5 -79.5t114.5 -46.5t115 -15q75 0 131 23t86.5 65t30.5 97q0 64 -37.5 105.5t-97 72.5t-126.5 58q-66 29 -131.5 60t-119 74t-86 104t-32.5 148q0 148 93.5 242.5t246.5 118.5l-4 187h157l-3 -183q80 -5 162 -28.5t162 -64.5l-92 -190
q-62 38 -134.5 59t-135.5 21q-95 0 -153.5 -45t-58.5 -118q0 -58 36 -97.5t95.5 -70t127.5 -60.5q65 -29 130.5 -62t120 -77.5t87.5 -106.5t33 -149q0 -101 -47 -181t-132.5 -131.5t-200.5 -68.5l3 -187h-157l4 182q-113 8 -220 49.5t-198 113.5z" />
    <glyph glyph-name="percent" unicode="%" horiz-adv-x="1643" 
d="M400 873q-152 0 -244.5 89t-92.5 234q0 146 93 235t244 89q152 0 244 -89t92 -235q0 -145 -92.5 -234t-243.5 -89zM444 0h-205l967 1500h205zM400 1014q73 0 118 50t45 133t-44.5 133t-118.5 50t-119 -50t-45 -133t45 -133t119 -50zM1243 -20q-151 0 -243.5 89t-92.5 234
q0 146 92.5 235t243.5 89q152 0 244.5 -89t92.5 -235q0 -145 -93 -234t-244 -89zM1243 121q73 0 118.5 50t45.5 132q0 83 -45 133.5t-119 50.5q-73 0 -118 -50.5t-45 -133.5q0 -82 45 -132t118 -50z" />
    <glyph glyph-name="ampersand" unicode="&#x26;" horiz-adv-x="1482" 
d="M1429 133l-111 -163q-67 43 -131.5 88t-123.5 88q-98 -85 -212 -130.5t-241 -45.5q-145 0 -260 55.5t-181 153t-66 221.5q0 101 42 174t110 127t145 99q-68 104 -103.5 200t-35.5 180q0 103 48.5 181.5t133.5 123.5t193 45q107 0 188.5 -42.5t128 -117.5t46.5 -172
q0 -107 -48.5 -182.5t-124.5 -131t-160 -104.5q69 -85 162.5 -175.5t209.5 -185.5q48 66 88.5 149.5t70.5 180.5l192 -63q-36 -115 -84 -213.5t-106 -178.5q57 -43 111.5 -81t118.5 -80zM579 903q57 36 104 74.5t74.5 86t27.5 108.5q0 75 -41 123.5t-107 48.5
q-65 0 -107 -50t-42 -129q0 -57 23.5 -123t67.5 -139zM492 673q-43 -31 -78 -66.5t-55 -78t-20 -96.5q0 -74 37.5 -132t103.5 -91.5t150 -33.5q71 0 138.5 25.5t128.5 73.5q-124 102 -225.5 202.5t-179.5 196.5z" />
    <glyph glyph-name="quotesingle" unicode="'" horiz-adv-x="449" 
d="M292 1085h-135l-24 435h183z" />
    <glyph glyph-name="parenleft" unicode="(" horiz-adv-x="633" 
d="M580 -289h-241q-139 186 -212.5 422t-73.5 492t73.5 492t212.5 423h241q-151 -197 -231 -431.5t-80 -482.5q0 -247 80 -481.5t231 -433.5z" />
    <glyph glyph-name="parenright" unicode=")" horiz-adv-x="634" 
d="M295 -289h-242q152 199 232 433.5t80 481.5q0 248 -80 482.5t-232 431.5h242q138 -187 212 -423t74 -492t-74 -492t-212 -422z" />
    <glyph glyph-name="asterisk" unicode="*" horiz-adv-x="1046" 
d="M874 751l-158 -116l-193 328l-193 -328l-159 116l249 287l-367 86l60 186l346 -150l-33 380h194l-34 -380l347 150l60 -186l-368 -85z" />
    <glyph glyph-name="plus" unicode="+" horiz-adv-x="1129" 
d="M996 393h-324v-322h-215v322h-324v195h324v322h215v-322h324v-195z" />
    <glyph glyph-name="comma" unicode="," horiz-adv-x="478" 
d="M262 -240h-169l76 428h206z" />
    <glyph glyph-name="hyphen" unicode="-" horiz-adv-x="1066" 
d="M933 407h-800v190h800v-190z" />
    <glyph glyph-name="period" unicode="." horiz-adv-x="478" 
d="M239 -20q-56 0 -90 34t-34 89q0 56 34 90.5t90 34.5q55 0 89.5 -34.5t34.5 -90.5q0 -55 -34.5 -89t-89.5 -34z" />
    <glyph glyph-name="slash" unicode="/" horiz-adv-x="897" 
d="M246 -20h-233l638 1540h233z" />
    <glyph glyph-name="zero" unicode="0" horiz-adv-x="1221" 
d="M611 -30q-165 0 -285.5 91.5t-185.5 266t-65 423.5q0 248 65 422t185.5 265.5t285.5 91.5t285 -91.5t185 -265.5t65 -422q0 -249 -65 -423.5t-185 -266t-285 -91.5zM611 202q126 0 195.5 144t69.5 405q0 260 -69.5 403.5t-195.5 143.5t-196 -143.5t-70 -403.5
q0 -261 70 -405t196 -144z" />
    <glyph glyph-name="one" unicode="1" horiz-adv-x="819" 
d="M660 0h-264v1240l-260 -94l-83 210l396 144h211v-1500z" />
    <glyph glyph-name="two" unicode="2" horiz-adv-x="1229" 
d="M1106 0h-938v157q180 159 303.5 283t199 224.5t109.5 186.5t34 167q0 85 -31.5 148.5t-87.5 98.5t-130 35q-86 0 -164.5 -48.5t-130.5 -134.5l-137 168q84 116 211.5 180.5t268.5 64.5q133 0 239.5 -57.5t169 -160.5t62.5 -243q0 -103 -36 -208t-106.5 -211t-172.5 -211
t-233 -208h570v-231z" />
    <glyph glyph-name="three" unicode="3" horiz-adv-x="1155" 
d="M87 134l103 195q81 -63 162 -95.5t160 -32.5t139.5 30.5t95 84.5t34.5 125q0 115 -93 179.5t-258 64.5h-59v185h59q90 0 160 30t110 82.5t40 119.5q0 57 -29 101.5t-80.5 70t-117.5 25.5t-136.5 -28.5t-142.5 -83.5l-118 183q87 77 195.5 118.5t226.5 41.5q131 0 233 -49
t160.5 -134t58.5 -195q0 -123 -73.5 -221t-191.5 -146q154 -40 242.5 -139.5t88.5 -241.5q0 -125 -68 -223.5t-185 -154.5t-267 -56q-125 0 -240 42t-209 122z" />
    <glyph glyph-name="four" unicode="4" horiz-adv-x="1286" 
d="M1050 0h-264v323h-733v204l734 973h263v-946h183v-231h-183v-323zM309 554h477v634z" />
    <glyph glyph-name="five" unicode="5" horiz-adv-x="1154" 
d="M75 158l139 212q41 -77 122 -122.5t177 -45.5q88 0 155 37t104.5 103t37.5 152t-38 152.5t-105 103.5t-155 37q-63 0 -118 -21t-100 -61l-130 77l67 718h767v-232h-526l-36 -353q74 22 156 22q142 0 252 -60t172.5 -166t62.5 -243q0 -144 -70 -256.5t-193 -177
t-281 -64.5q-134 0 -254 49t-206 139z" />
    <glyph glyph-name="six" unicode="6" horiz-adv-x="1179" 
d="M589 -30q-156 0 -271.5 71t-179 200t-63.5 303q0 143 43.5 279.5t126.5 260.5t202 229.5t270 186.5l121 -169q-120 -69 -219.5 -158t-172.5 -190.5t-116 -209.5q58 65 141 101t184 36q132 0 233 -57.5t158.5 -159t57.5 -232.5q0 -143 -66.5 -253.5t-183 -174
t-265.5 -63.5zM592 201q69 0 124 36t86.5 98t31.5 138t-30.5 134t-84.5 91t-124 33q-71 0 -126.5 -33.5t-87.5 -92.5t-32 -136q0 -75 32 -136t87 -96.5t124 -35.5z" />
    <glyph glyph-name="seven" unicode="7" horiz-adv-x="1072" 
d="M472 0h-286l523 1268h-656v232h966l-1 -175z" />
    <glyph glyph-name="eight" unicode="8" horiz-adv-x="1184" 
d="M591 -30q-152 0 -266.5 53t-178 149.5t-63.5 224.5q0 144 79 247.5t217 149.5q-114 44 -178.5 134.5t-64.5 215.5q0 117 56.5 204t159 134.5t239.5 47.5q138 0 240.5 -47.5t159 -134.5t56.5 -204q0 -124 -64.5 -215t-178.5 -135q138 -45 217.5 -149t79.5 -247
q0 -128 -63.5 -225t-178 -150t-268.5 -53zM592 901q88 0 142.5 58.5t54.5 151.5q0 95 -54.5 153t-142.5 58q-89 0 -143.5 -58t-54.5 -153q0 -93 54.5 -151.5t143.5 -58.5zM591 186q74 0 129.5 31.5t86 88.5t30.5 132t-30.5 132.5t-86 89t-129.5 31.5q-72 0 -127.5 -32
t-86 -89t-30.5 -132q0 -76 30.5 -132.5t86 -88t127.5 -31.5z" />
    <glyph glyph-name="nine" unicode="9" horiz-adv-x="1179" 
d="M463 0l-122 169q121 70 220.5 159t173 190.5t115.5 208.5q-58 -66 -141 -101.5t-185 -35.5q-131 0 -232.5 57.5t-159 159t-57.5 232.5q0 143 67 254t183.5 174t266.5 63q156 0 271.5 -71t178 -200t62.5 -303q0 -143 -43.5 -279.5t-126.5 -260.5t-202 -229.5t-269 -186.5z
M585 769q71 0 126.5 34t87.5 93.5t32 134.5q0 76 -32 136.5t-87 96t-124 35.5q-68 0 -123.5 -35.5t-87.5 -97.5t-32 -139q0 -75 31 -133.5t85 -91.5t124 -33z" />
    <glyph glyph-name="colon" unicode=":" horiz-adv-x="477" 
d="M238 731q-52 0 -87.5 36t-35.5 88t35.5 88.5t87.5 36.5q53 0 88.5 -36.5t35.5 -88.5t-35.5 -88t-88.5 -36zM238 -20q-52 0 -87.5 36t-35.5 88t35.5 88.5t87.5 36.5q53 0 88.5 -36.5t35.5 -88.5t-35.5 -88t-88.5 -36z" />
    <glyph glyph-name="semicolon" unicode=";" horiz-adv-x="479" 
d="M259 732q-53 0 -87.5 35.5t-34.5 87.5t34.5 88.5t87.5 36.5q52 0 88 -36.5t36 -88.5t-36 -87.5t-88 -35.5zM262 -240h-169l76 428h207z" />
    <glyph glyph-name="less" unicode="&#x3c;" horiz-adv-x="1110" 
d="M977 0l-924 451v121l924 448v-206l-672 -303l672 -305v-206z" />
    <glyph glyph-name="equal" unicode="=" horiz-adv-x="1221" 
d="M1088 642h-955v191h955v-191zM1088 155h-955v191h955v-191z" />
    <glyph glyph-name="greater" unicode="&#x3e;" horiz-adv-x="1110" 
d="M133 0v206l672 305l-672 303v206l924 -448v-121z" />
    <glyph glyph-name="question" unicode="?" horiz-adv-x="932" 
d="M188 1193l-105 200q185 137 398 137q122 0 211 -43.5t138 -123.5t49 -189q0 -70 -21.5 -122.5t-57 -96.5t-80.5 -89q-49 -51 -96 -110t-78 -142t-31 -205h-212q0 148 31.5 245.5t79 162.5t92.5 115q44 50 76 96.5t32 112.5q0 78 -49 124t-133 46q-67 0 -131 -31t-113 -87
zM409 -20q-55 0 -89 34t-34 89q0 56 34 90.5t89 34.5q56 0 90 -34.5t34 -90.5q0 -55 -34 -89t-90 -34z" />
    <glyph glyph-name="at" unicode="@" horiz-adv-x="1914" 
d="M906 72q-127 0 -225 58t-153.5 160.5t-55.5 234.5q0 143 64 257.5t174 181.5t247 67q108 0 193.5 -42.5t139.5 -120.5l9 100h167q-7 -53 -15 -118.5t-15 -135.5t-13 -135.5t-9.5 -118t-3.5 -82.5q0 -61 29.5 -102.5t72.5 -41.5q47 0 85 48.5t59.5 131.5t21.5 185
q0 194 -82.5 339t-230.5 226t-346 81q-163 0 -302 -55.5t-242.5 -155t-160.5 -234t-57 -292.5q0 -184 76.5 -323t214 -216.5t318.5 -77.5q222 0 412 112l72 -158q-248 -122 -503 -122q-232 0 -409.5 99t-277 275.5t-99.5 407.5q0 196 71.5 362t200.5 289t303 191t379 68
q187 0 342.5 -57.5t268.5 -164t174 -252.5t61 -322q0 -161 -45.5 -284.5t-126 -193t-185.5 -69.5q-86 0 -147.5 47.5t-88.5 133.5q-64 -87 -157 -134t-205 -47zM941 242q81 0 148.5 35.5t112.5 98t58 141.5l6 62q0 85 -34.5 148.5t-95.5 98.5t-142 35q-90 0 -162.5 -44.5
t-114.5 -120t-42 -171.5q0 -127 73.5 -205t192.5 -78z" />
    <glyph glyph-name="A" unicode="A" horiz-adv-x="1550" 
d="M308 0h-277l604 1500h281l603 -1500h-277l-137 350h-660zM532 581h486l-243 621z" />
    <glyph glyph-name="B" unicode="B" horiz-adv-x="1318" 
d="M133 0v1500h548q232 0 362.5 -101.5t130.5 -281.5q0 -117 -56 -205.5t-150 -131.5q131 -36 205 -130t74 -231q0 -126 -62 -220.5t-174.5 -146.5t-264.5 -52h-613zM397 861h270q114 0 180 55.5t66 150.5q0 93 -67.5 147t-184.5 54h-264v-407zM397 232h285q90 0 156 27.5
t102.5 77t36.5 116.5q0 65 -34 112.5t-96 73t-148 25.5h-302v-432z" />
    <glyph glyph-name="C" unicode="C" horiz-adv-x="1509" 
d="M1422 190q-104 -104 -247.5 -162t-313.5 -58q-169 0 -313 58t-250 163.5t-164.5 248t-58.5 310.5q0 169 58.5 311t164.5 247.5t250 163.5t313 58t312 -58t247 -161l-184 -187q-69 82 -166 128t-213 46q-110 0 -203.5 -41t-162.5 -115t-107.5 -174t-38.5 -218t38.5 -217.5
t107.5 -174t162.5 -115.5t203.5 -41q116 0 213 46t166 128z" />
    <glyph glyph-name="D" unicode="D" horiz-adv-x="1567" 
d="M133 0v1500h472q273 0 472 -91t307 -259.5t108 -399.5q0 -230 -108 -399t-307 -260t-472 -91h-472zM397 232h218q193 0 328.5 60.5t207 176.5t71.5 281t-71.5 281t-207 176.5t-328.5 60.5h-218v-1036z" />
    <glyph glyph-name="E" unicode="E" horiz-adv-x="1217" 
d="M133 0v1500h951v-232h-687v-395h647v-231h-647v-410h697v-232h-961z" />
    <glyph glyph-name="F" unicode="F" horiz-adv-x="1182" 
d="M133 0v1500h926v-232h-662v-395h622v-231h-622v-642h-264z" />
    <glyph glyph-name="G" unicode="G" horiz-adv-x="1653" 
d="M1234 1151q-71 71 -169.5 109t-209.5 38q-113 0 -206.5 -39t-161.5 -111.5t-105 -172t-37 -220.5q0 -122 37.5 -223.5t106 -175.5t162.5 -114t207 -40q98 0 180 30.5t144.5 88t102.5 138.5t53 180h-474v204h707l7 -100q0 -171 -52.5 -312.5t-149.5 -245t-230 -159.5
t-294 -56q-166 0 -307.5 59t-247 164.5t-164 247.5t-58.5 309q0 166 58.5 308.5t163 248.5t246 164.5t306.5 58.5q157 0 300.5 -54t256.5 -155z" />
    <glyph glyph-name="H" unicode="H" horiz-adv-x="1505" 
d="M397 0h-264v1500h264v-645h711v645h264v-1500h-264v623h-711v-623z" />
    <glyph glyph-name="I" unicode="I" horiz-adv-x="530" 
d="M397 1500h-264v-1500h264v1500z" />
    <glyph glyph-name="J" unicode="J" horiz-adv-x="531" 
d="M-204 -360l-13 231q177 0 264 84.5t87 255.5v1289h264v-1285q0 -203 -62 -330t-194.5 -186t-345.5 -59z" />
    <glyph glyph-name="K" unicode="K" horiz-adv-x="1443" 
d="M398 0h-265v1500h264v-793q40 59 77.5 110.5t64.5 85.5l475 597h313l-550 -690l657 -810h-341l-485 597l-210 -265v-332z" />
    <glyph glyph-name="L" unicode="L" horiz-adv-x="1146" 
d="M1093 0h-960v1500h264v-1268h696v-232z" />
    <glyph glyph-name="M" unicode="M" horiz-adv-x="1839" 
d="M1706 0h-264v1125l-417 -873h-213l-415 868v-1120h-264v1500h336l450 -959l449 959h338v-1500z" />
    <glyph glyph-name="N" unicode="N" horiz-adv-x="1610" 
d="M1477 0h-298l-782 1091v-1091h-264v1500h298l782 -1092v1092h264v-1500z" />
    <glyph glyph-name="O" unicode="O" horiz-adv-x="1721" 
d="M861 -30q-170 0 -313.5 58t-249.5 163.5t-164.5 248t-58.5 310.5q0 169 58.5 311t164.5 247.5t249.5 163.5t314.5 58q170 0 313 -58t249 -163.5t164 -247.5t58 -311q0 -168 -58 -310.5t-164 -248t-249 -163.5t-314 -58zM861 202q111 0 205 41t163.5 115.5t108 174.5
t38.5 217t-38.5 217t-108 174.5t-163.5 115.5t-205 41q-110 0 -204.5 -41t-164 -115.5t-108.5 -174.5t-39 -217t39 -217t108.5 -174.5t164 -115.5t204.5 -41z" />
    <glyph glyph-name="P" unicode="P" horiz-adv-x="1324" 
d="M133 0v1500h496q188 0 323.5 -60t208 -171t72.5 -265q0 -153 -72.5 -265t-207.5 -172.5t-322 -60.5h-234v-506h-264zM397 737h207q173 0 266 70.5t93 196.5t-93.5 195t-265.5 69h-207v-531z" />
    <glyph glyph-name="Q" unicode="Q" horiz-adv-x="1725" 
d="M1582 -242q-144 28 -254 56.5t-209 66t-211 90.5h-47q-170 0 -313.5 58t-249.5 163t-164.5 247.5t-58.5 310.5q0 169 58.5 311t164.5 247.5t249.5 163.5t314.5 58q170 0 313 -58t249 -163.5t164 -247.5t58 -311q0 -165 -57 -305.5t-160 -244.5t-242 -161q80 -20 152 -33
t144.5 -21t154.5 -12zM861 202q111 0 205 41t163.5 115.5t108 174.5t38.5 217t-38.5 217t-108 174.5t-163.5 115.5t-205 41q-110 0 -204.5 -41t-164 -115.5t-108.5 -174.5t-39 -217t39 -217t108.5 -174.5t164 -115.5t204.5 -41z" />
    <glyph glyph-name="R" unicode="R" horiz-adv-x="1398" 
d="M1345 0h-293l-329 564h-326v-564h-264v1500h595q175 0 299 -56t191 -160.5t67 -251.5q0 -156 -77 -264.5t-218 -158.5zM397 780h312q145 0 225.5 64t80.5 180t-80 180t-226 64h-312v-488z" />
    <glyph glyph-name="S" unicode="S" horiz-adv-x="1218" 
d="M63 156l125 202q69 -54 133 -89.5t129 -52.5t132 -17q86 0 149.5 26.5t98.5 73.5t35 110q0 71 -42.5 118.5t-111.5 82t-148 67.5q-72 30 -145.5 65t-133.5 83.5t-96.5 117.5t-36.5 167q0 127 64 221.5t177 146t258 51.5q102 0 209.5 -26.5t212.5 -80.5l-105 -213
q-71 42 -151 65.5t-153 23.5q-72 0 -126.5 -22.5t-85 -64t-30.5 -96.5q0 -65 40.5 -110t106.5 -79.5t141 -67.5t150.5 -70.5t138 -88.5t100 -122t37.5 -171q0 -130 -67.5 -228.5t-189.5 -153t-285 -54.5q-146 0 -280 47t-250 139z" />
    <glyph glyph-name="T" unicode="T" horiz-adv-x="1225" 
d="M745 0h-264v1268h-456v232h1175v-232h-455v-1268z" />
    <glyph glyph-name="U" unicode="U" horiz-adv-x="1559" 
d="M1426 1500v-827q0 -218 -77.5 -376t-222.5 -242.5t-347 -84.5q-201 0 -346 84.5t-222.5 242.5t-77.5 376v827h264v-797q0 -163 44 -275t129.5 -169t208.5 -57q124 0 209.5 57t129.5 169t44 275v797h264z" />
    <glyph glyph-name="V" unicode="V" horiz-adv-x="1574" 
d="M928 0h-282l-603 1500h278l466 -1202l467 1202h277z" />
    <glyph glyph-name="W" unicode="W" horiz-adv-x="2186" 
d="M1663 0h-240l-329 1060l-329 -1060h-240l-488 1500h277l330 -1065l330 1065h240l329 -1062l329 1062h277z" />
    <glyph glyph-name="X" unicode="X" horiz-adv-x="1554" 
d="M1517 0h-332l-416 578l-418 -578h-314l577 773l-532 727h332l373 -517l366 517h322l-535 -722z" />
    <glyph glyph-name="Y" unicode="Y" horiz-adv-x="1447" 
d="M855 0h-264v641l-572 859h321l383 -630l385 630h320l-573 -861v-639z" />
    <glyph glyph-name="Z" unicode="Z" horiz-adv-x="1287" 
d="M1212 0h-1137v197l779 1071h-739v232h1084v-207l-772 -1061h785v-232z" />
    <glyph glyph-name="bracketleft" unicode="[" horiz-adv-x="655" 
d="M602 -289h-469v1829h469v-195h-253v-1436h253v-198z" />
    <glyph glyph-name="backslash" unicode="\" horiz-adv-x="897" 
d="M884 -20h-233l-638 1540h233z" />
    <glyph glyph-name="bracketright" unicode="]" horiz-adv-x="655" 
d="M522 -289h-469v195h254v1439h-254v195h469v-1829z" />
    <glyph glyph-name="asciicircum" unicode="^" horiz-adv-x="1069" 
d="M1016 700h-191l-290 601l-291 -601h-191l413 800h137z" />
    <glyph glyph-name="underscore" unicode="_" horiz-adv-x="1338" 
d="M1205 0h-1072v196h1072v-196z" />
    <glyph glyph-name="grave" unicode="`" horiz-adv-x="509" 
d="M436 1164h-176l-197 336h226z" />
    <glyph glyph-name="a" unicode="a" horiz-adv-x="1110" 
d="M997 0h-214l-14 123q-55 -68 -137 -105.5t-182 -37.5q-106 0 -189 41.5t-130.5 113.5t-47.5 164q0 97 51.5 170.5t141 115.5t204.5 42q70 0 140.5 -16t130.5 -45v32q0 66 -36 114t-97 74.5t-137 26.5q-69 0 -138 -23.5t-129 -69.5l-70 193q96 53 196.5 80t196.5 27
q141 0 244 -55.5t159.5 -158t56.5 -241.5v-565zM501 178q65 0 120.5 27t91 75.5t37.5 111.5v11q-47 34 -106 52.5t-119 18.5q-92 0 -151 -41.5t-59 -108.5q0 -41 24 -74.5t66.5 -52.5t95.5 -19z" />
    <glyph glyph-name="b" unicode="b" horiz-adv-x="1276" 
d="M350 0h-217v1500h246v-621q66 67 153.5 104t190.5 37q141 0 251 -68t173.5 -185.5t63.5 -266.5t-63.5 -266.5t-173.5 -185.5t-251 -68q-110 0 -202.5 42.5t-158.5 116.5zM669 201q84 0 149.5 39t103 106.5t37.5 153.5t-37.5 153.5t-103 107t-149.5 39.5q-79 0 -142.5 -36
t-102.5 -98t-45 -141v-48q6 -80 44.5 -142.5t102.5 -98t143 -35.5z" />
    <glyph glyph-name="c" unicode="c" horiz-adv-x="1062" 
d="M1001 154q-73 -83 -177 -128.5t-227 -45.5q-152 0 -272.5 68t-190 185.5t-69.5 266.5t69.5 266.5t190 185.5t272.5 68q122 0 225.5 -45t176.5 -127l-144 -153q-45 49 -108.5 76t-134.5 27q-86 0 -152.5 -38t-104 -105t-37.5 -154t37.5 -154.5t104 -106t152.5 -38.5
q71 0 135 27.5t108 75.5z" />
    <glyph glyph-name="d" unicode="d" horiz-adv-x="1278" 
d="M1145 0h-217l-13 140q-65 -75 -158 -117.5t-203 -42.5q-140 0 -251 68t-174.5 185.5t-63.5 266.5t63.5 266.5t174.5 185.5t251 68q104 0 192 -37t153 -104v621h246v-1500zM609 201q80 0 146 36.5t105 100.5t39 146v35q0 81 -39 144.5t-105 100t-146 36.5
q-84 0 -150 -39.5t-104 -107t-38 -152.5q0 -86 38 -154t104 -107t150 -39z" />
    <glyph glyph-name="e" unicode="e" horiz-adv-x="1165" 
d="M1040 116q-187 -136 -409 -136q-161 0 -289 70t-202.5 191t-74.5 274q0 145 67.5 259t185 180t265.5 66q154 0 270.5 -72.5t181.5 -201t65 -298.5v-32h-770q18 -68 63.5 -120t113.5 -81t153 -29q160 0 296 104zM320 560h552q-8 75 -45.5 131t-97 87.5t-133.5 31.5
q-75 0 -134 -32t-96 -88.5t-46 -129.5z" />
    <glyph glyph-name="f" unicode="f" horiz-adv-x="888" 
d="M458 0h-246v780h-175v220h175v175q0 104 47.5 184t130 125.5t190.5 45.5q67 0 136 -19t135 -59l-93 -192q-33 25 -68.5 37.5t-70.5 12.5q-69 0 -115 -49t-46 -134v-127h302v-220h-302v-780z" />
    <glyph glyph-name="g" unicode="g" horiz-adv-x="1256" 
d="M548 -8q-139 0 -248 67t-172 183.5t-63 263.5q0 148 63 264t172 183t248 67q109 0 201 -42t156 -117l12 139h216v-973q0 -166 -70.5 -289t-198.5 -190.5t-303 -67.5q-243 0 -435 155l101 201q134 -135 318 -135q104 0 180.5 41.5t119 117t42.5 176.5v96
q-64 -66 -151 -103t-188 -37zM602 211q79 0 143.5 35.5t103 97.5t38.5 141v44q0 79 -38.5 140t-103.5 96.5t-143 35.5q-82 0 -147 -38.5t-102.5 -105.5t-37.5 -151t37.5 -151t102.5 -105.5t147 -38.5z" />
    <glyph glyph-name="h" unicode="h" 
d="M133 0v1500h246v-628q110 148 323 148q192 0 300 -117.5t108 -326.5v-576h-246v513q0 136 -63 211.5t-177 75.5q-115 0 -180 -76.5t-65 -210.5v-513h-246z" />
    <glyph glyph-name="i" unicode="i" horiz-adv-x="517" 
d="M258 1265q-52 0 -87.5 36.5t-35.5 88.5q0 51 35.5 87.5t87.5 36.5q53 0 89 -36.5t36 -87.5q0 -52 -36 -88.5t-89 -36.5zM381 0h-246v1000h246v-1000z" />
    <glyph glyph-name="j" unicode="j" horiz-adv-x="519" 
d="M267 1265q-52 0 -87.5 36t-35.5 88t35.5 88.5t87.5 36.5q53 0 89 -36.5t36 -88.5t-36 -88t-89 -36zM-135 -504v195q16 -3 30.5 -4t26.5 -1q103 0 162.5 68t59.5 187v1059h247v-1069q0 -220 -97.5 -335.5t-282.5 -115.5q-33 0 -70 4.5t-76 11.5z" />
    <glyph glyph-name="k" unicode="k" horiz-adv-x="1200" 
d="M379 0h-246v1500h246v-967l91 111l337 356h309l-418 -442l471 -558h-317l-324 399l-149 -147v-252z" />
    <glyph glyph-name="l" unicode="l" horiz-adv-x="529" 
d="M396 0h-263v1540h263v-1540z" />
    <glyph glyph-name="m" unicode="m" horiz-adv-x="1859" 
d="M1746 0h-246v513q0 136 -56.5 211.5t-159.5 75.5q-104 0 -162.5 -76t-58.5 -211v-513h-246v513q0 136 -57 211.5t-159 75.5q-105 0 -163.5 -76t-58.5 -211v-513h-246v1000h197l9 -170q51 93 135.5 141.5t199.5 48.5q119 0 205.5 -51.5t132.5 -147.5q50 98 137 148.5
t205 50.5q185 0 288.5 -117.5t103.5 -326.5v-576z" />
    <glyph glyph-name="n" unicode="n" 
d="M1110 0h-246v539q0 121 -60.5 190t-167.5 69q-75 0 -133 -34.5t-91 -98.5t-33 -149v-516h-246v1000h203l8 -161q54 88 147 134.5t212 46.5q189 0 298 -115t109 -315v-590z" />
    <glyph glyph-name="o" unicode="o" horiz-adv-x="1192" 
d="M597 -20q-152 0 -272.5 68t-190 185.5t-69.5 266.5t69.5 266.5t190 185.5t272.5 68q153 0 273 -68t188.5 -185.5t68.5 -266.5t-68.5 -266.5t-188.5 -185.5t-273 -68zM596 201q80 0 143 39t99.5 107t36.5 154q0 85 -36.5 152.5t-99.5 106.5t-143 39q-79 0 -142.5 -39
t-100 -106.5t-36.5 -152.5q0 -86 36.5 -154t100 -107t142.5 -39z" />
    <glyph glyph-name="p" unicode="p" horiz-adv-x="1277" 
d="M379 -500h-246v1500h217l12 -140q66 75 159 117.5t203 42.5q140 0 250.5 -68t174 -185.5t63.5 -266.5t-63.5 -266.5t-174 -185.5t-250.5 -68q-103 0 -191 37t-154 104v-621zM671 202q84 0 149.5 38.5t102 106t36.5 154.5t-37 154.5t-102 106t-149 38.5q-79 0 -143 -35.5
t-103 -97t-46 -140.5v-55q7 -79 45.5 -140t102.5 -95.5t144 -34.5z" />
    <glyph glyph-name="q" unicode="q" horiz-adv-x="1277" 
d="M1144 -500h-246v621q-65 -67 -153 -104t-191 -37q-141 0 -251.5 68t-174 185.5t-63.5 266.5t63.5 266.5t174 185.5t251.5 68q110 0 202.5 -42.5t158.5 -117.5l13 140h216v-1500zM608 202q80 0 143.5 34.5t102.5 95.5t44 139v56q-5 80 -43.5 141t-102 95.5t-143.5 34.5
q-85 0 -150.5 -38.5t-103 -105.5t-37.5 -154t37.5 -154t102.5 -105.5t150 -38.5z" />
    <glyph glyph-name="r" unicode="r" horiz-adv-x="835" 
d="M379 0h-246v1000h214l9 -182q52 96 140.5 149t203.5 53q30 0 61.5 -4t62.5 -12l-30 -222q-62 18 -120 18q-88 0 -154.5 -41t-103.5 -113.5t-37 -168.5v-477z" />
    <glyph glyph-name="s" unicode="s" horiz-adv-x="886" 
d="M63 86l56 214q33 -33 82 -60t104.5 -42.5t108.5 -15.5q71 0 114 29.5t43 77.5q0 38 -26 63.5t-68 45t-92 38.5q-66 24 -134 57.5t-113.5 89t-45.5 147.5q0 89 45.5 154t127.5 100.5t191 35.5q172 0 343 -86l-71 -202q-32 24 -78 44t-94 32t-87 12q-57 0 -91 -25t-34 -66
q0 -28 19 -50.5t59 -43.5t103 -47q68 -26 136.5 -60.5t115 -91t46.5 -149.5q0 -92 -49.5 -161t-138 -107.5t-206.5 -38.5q-196 0 -366 106z" />
    <glyph glyph-name="t" unicode="t" horiz-adv-x="843" 
d="M792 26q-110 -46 -213 -46q-105 0 -184.5 45t-124 125.5t-44.5 187.5v442h-175v220h188v250h233v-250h285v-220h-285v-397q0 -85 46.5 -134t116.5 -49q62 0 123 38z" />
    <glyph glyph-name="u" unicode="u" 
d="M1090 0h-203l-8 161q-54 -88 -142 -134.5t-208 -46.5q-193 0 -304.5 118.5t-111.5 326.5v575h246v-528q0 -125 63.5 -197.5t172.5 -72.5q113 0 181 77t68 205v516h246v-1000z" />
    <glyph glyph-name="v" unicode="v" horiz-adv-x="1169" 
d="M1116 1000l-413 -1000h-238l-412 1000h264l268 -750l269 750h262z" />
    <glyph glyph-name="w" unicode="w" horiz-adv-x="1645" 
d="M1286 0h-282l-182 666l-182 -666h-282l-321 1000h260l199 -732l217 732h219l216 -733l200 733h260z" />
    <glyph glyph-name="x" unicode="x" horiz-adv-x="1214" 
d="M344 0h-331l428 513l-402 487h335l235 -314l231 314h332l-398 -483l427 -517h-335l-259 347z" />
    <glyph glyph-name="y" unicode="y" horiz-adv-x="1254" 
d="M596 -500h-263l208 504l-496 996h277l336 -715l296 715h263z" />
    <glyph glyph-name="z" unicode="z" horiz-adv-x="1085" 
d="M1020 0h-955v127l539 652h-511v221h895v-107l-554 -672h586v-221z" />
    <glyph glyph-name="braceleft" unicode="{" horiz-adv-x="646" 
d="M593 -289q-186 0 -281 73.5t-95 217.5v357q0 86 -47.5 148.5t-116.5 67.5v101q69 5 116.5 67.5t47.5 148.5v357q0 144 95 217.5t281 73.5v-196q-85 0 -122.5 -34.5t-37.5 -112.5v-311q0 -88 -43 -157t-118 -104q75 -34 118 -103t43 -157v-309q0 -78 37.5 -113.5
t122.5 -35.5v-196z" />
    <glyph glyph-name="bar" unicode="|" horiz-adv-x="481" 
d="M348 -250h-215v1790h215v-1790z" />
    <glyph glyph-name="braceright" unicode="}" horiz-adv-x="646" 
d="M53 -289v196q85 0 122.5 35.5t37.5 113.5v309q0 88 43.5 157t117.5 103q-74 35 -117.5 104t-43.5 157v311q0 77 -37.5 112t-122.5 35v196q186 0 281 -73.5t95 -217.5v-357q0 -86 47.5 -148.5t116.5 -67.5v-101q-69 -5 -116.5 -67.5t-47.5 -148.5v-357q0 -144 -95 -217.5
t-281 -73.5z" />
    <glyph glyph-name="asciitilde" unicode="~" horiz-adv-x="1308" 
d="M1175 583q-72 -76 -138.5 -112t-136.5 -36q-63 0 -122 23.5t-118 50.5q-59 29 -119.5 52.5t-125.5 23.5q-138 0 -282 -144v180q147 144 286 144q53 0 109.5 -19.5t133.5 -56.5q59 -28 118 -51.5t122 -23.5q136 0 273 149v-180z" />
    <glyph glyph-name="uni00A0" unicode="&#xa0;" horiz-adv-x="476" 
 />
    <glyph glyph-name="exclamdown" unicode="&#xa1;" horiz-adv-x="476" 
d="M237 776q-52 0 -88 36t-36 87q0 50 36 85.5t88 35.5q53 0 89 -35.5t36 -85.5q0 -51 -36 -87t-89 -36zM339 -500h-203l38 1091h127z" />
    <glyph glyph-name="cent" unicode="&#xa2;" horiz-adv-x="1062" 
d="M1001 294q-60 -68 -143.5 -112t-181.5 -57l4 -185h-163l4 185q-132 16 -235.5 86.5t-162 181t-58.5 247.5t58.5 247.5t162 181t235.5 86.5l-4 185h162l-4 -185q99 -13 182 -56t142 -111l-144 -153q-43 49 -106 76.5t-134 27.5q-86 0 -153 -38.5t-106 -106t-39 -153.5
t39 -154t106 -107.5t152 -39.5q72 0 135.5 28.5t105.5 76.5z" />
    <glyph glyph-name="sterling" unicode="&#xa3;" horiz-adv-x="1227" 
d="M922 674h-371q8 -32 11.5 -62t3.5 -62q0 -94 -31 -176t-96 -154h647v-220h-975v139q121 73 190 176.5t69 226.5q0 32 -5 64.5t-16 67.5h-246v152h195q-32 82 -47.5 144t-15.5 124q0 124 57 220t156.5 151t227.5 55q137 0 254 -64.5t194 -181.5l-162 -122
q-46 71 -110.5 109.5t-137.5 38.5q-71 0 -123.5 -33t-82 -92t-29.5 -139q0 -44 8.5 -89.5t33.5 -120.5h401v-152z" />
    <glyph glyph-name="currency" unicode="&#xa4;" horiz-adv-x="1259" 
d="M1155 355l-98 -99l-160 164q-56 -41 -124 -63t-144 -22q-75 0 -143.5 22t-123.5 62l-160 -163l-99 99l163 160q-40 56 -61 123.5t-21 144.5q0 76 21 143.5t61 123.5l-163 160l99 98l160 -162q55 41 123 62t145 21q76 0 143.5 -21t122.5 -62l161 164l99 -99l-164 -161
q41 -56 62.5 -123.5t21.5 -143.5t-21.5 -144t-62.5 -124zM630 500q77 0 137.5 36.5t95 100.5t34.5 146t-34.5 146t-95.5 100.5t-138 36.5q-76 0 -137 -36.5t-95.5 -100.5t-34.5 -146t35 -145.5t95.5 -100.5t137.5 -37z" />
    <glyph glyph-name="yen" unicode="&#xa5;" horiz-adv-x="1274" 
d="M764 0h-252v291h-321v108h321v144h-321v107h315l-477 850h288l319 -662l321 662h288l-474 -850h312v-108h-319v-143h319v-108h-319v-291z" />
    <glyph glyph-name="brokenbar" unicode="&#xa6;" horiz-adv-x="482" 
d="M349 820h-216v720h216v-720zM349 -250h-216v720h216v-720z" />
    <glyph glyph-name="section" unicode="&#xa7;" horiz-adv-x="1051" 
d="M154 -5l84 188q53 -34 123 -55t128 -21q72 0 114.5 31.5t42.5 83.5q0 43 -29 73t-76 53.5t-104 46.5q-69 28 -139.5 65t-117.5 95t-47 151q0 90 49 161.5t136 116.5q-44 26 -78.5 58.5t-55 76t-20.5 101.5q0 91 50.5 161t140 109.5t206.5 39.5q176 0 336 -85l-83 -188
q-53 34 -123.5 55t-128.5 21q-71 0 -114 -31.5t-43 -85.5q0 -34 22 -61t67.5 -52.5t116.5 -55.5q71 -29 142 -66.5t118 -95.5t47 -151q0 -89 -48.5 -160.5t-135.5 -117.5q43 -26 78 -58.5t55.5 -76t20.5 -101.5q0 -91 -50.5 -161t-140.5 -109.5t-208 -39.5q-174 0 -335 85z
M633 509q44 27 70.5 69t26.5 95q0 56 -31.5 100.5t-100.5 83t-180 74.5q-44 -27 -70.5 -68.5t-26.5 -92.5q0 -55 32.5 -100.5t101.5 -84.5t178 -76z" />
    <glyph glyph-name="dieresis" unicode="&#xa8;" horiz-adv-x="910" 
d="M681 1224q-49 0 -79.5 30.5t-30.5 79.5q0 50 30.5 80t79.5 30t79 -30t30 -80q0 -49 -30 -79.5t-79 -30.5zM229 1224q-49 0 -79.5 30.5t-30.5 79.5q0 50 30.5 80t79.5 30q50 0 80 -30t30 -80q0 -49 -30 -79.5t-80 -30.5z" />
    <glyph glyph-name="copyright" unicode="&#xa9;" horiz-adv-x="1305" 
d="M653 -104q-173 0 -309 77.5t-213.5 213t-77.5 308.5t77.5 308t213.5 212.5t309 77.5t308.5 -77.5t213 -212.5t77.5 -308t-77.5 -308.5t-213 -213t-308.5 -77.5zM653 30q133 0 237 60.5t163.5 165.5t59.5 237q0 134 -60 239t-164 166t-236 61t-237 -60.5t-164.5 -165.5
t-59.5 -240q0 -133 59.5 -238t164 -165t237.5 -60zM916 262q-100 -93 -246 -93q-96 0 -172 42t-119 116t-43 168t43 167.5t119 115.5t172 42q145 0 246 -92l-88 -92q-27 30 -65.5 45.5t-83.5 15.5q-89 0 -145 -56t-56 -147q0 -89 56 -145.5t145 -56.5q45 0 84 16t66 46z" />
    <glyph glyph-name="ordfeminine" unicode="&#xaa;" horiz-adv-x="824" 
d="M691 810h-131l-8 101q-34 -53 -91.5 -82t-128.5 -29q-108 0 -178.5 59.5t-70.5 149.5q0 65 37 115t102 79.5t147 29.5q48 0 93 -10.5t85 -30.5v15q0 82 -47.5 129.5t-129.5 47.5q-48 0 -96.5 -17.5t-88.5 -48.5l-63 114q118 88 267 88q139 0 220.5 -74.5t81.5 -200.5
v-435zM368 917q49 0 89.5 19.5t65 53t24.5 72.5v40q-65 47 -150 47q-73 0 -120.5 -34.5t-47.5 -88.5q0 -48 39 -78.5t100 -30.5z" />
    <glyph glyph-name="guillemotleft" unicode="&#xab;" horiz-adv-x="1184" 
d="M608 111h-232l-323 386l323 385h232l-335 -386zM1051 111h-233l-323 386l323 385h233l-335 -386z" />
    <glyph glyph-name="logicalnot" unicode="&#xac;" horiz-adv-x="1071" 
d="M938 87h-215v320h-590v195h805v-515z" />
    <glyph glyph-name="uni00AD" unicode="&#xad;" horiz-adv-x="1128" 
d="M995 393h-862v195h862v-195z" />
    <glyph glyph-name="registered" unicode="&#xae;" horiz-adv-x="1305" 
d="M653 423q-173 0 -309 77.5t-213.5 213t-77.5 308.5t77.5 308t213.5 212.5t309 77.5t308.5 -77.5t213 -212.5t77.5 -308t-77.5 -308.5t-213 -213t-308.5 -77.5zM653 558q133 0 237 60t163.5 165t59.5 238q0 134 -59.5 239t-164 165.5t-236.5 60.5t-236.5 -60.5
t-165 -165.5t-60.5 -239q0 -133 60 -238t164.5 -165t237.5 -60zM916 702h-146l-129 250h-83v-249h-130v642h236q107 0 169 -53.5t62 -143.5q0 -64 -32 -110t-89 -68zM558 1064h81q62 0 93 21.5t31 64.5q0 42 -30.5 62.5t-93.5 20.5h-81v-169z" />
    <glyph glyph-name="macron" unicode="&#xaf;" horiz-adv-x="935" 
d="M802 1265h-669v142h669v-142z" />
    <glyph glyph-name="degree" unicode="&#xb0;" horiz-adv-x="681" 
d="M340 945q-83 0 -148 37.5t-102 102t-37 148.5q0 83 37 147.5t102 102t148 37.5t148 -37.5t102.5 -102t37.5 -147.5q0 -84 -37.5 -148.5t-102.5 -102t-148 -37.5zM340 1078q63 0 105 44t42 111t-42 110.5t-105 43.5q-64 0 -105 -43.5t-41 -110.5t41 -111t105 -44z" />
    <glyph glyph-name="plusminus" unicode="&#xb1;" horiz-adv-x="1129" 
d="M672 288h-215v325h-324v195h324v319h215v-319h324v-195h-324v-325zM996 0h-862v189h862v-189z" />
    <glyph glyph-name="twosuperior" unicode="&#xb2;" horiz-adv-x="743" 
d="M620 790h-448v80q110 97 176.5 170.5t96.5 131t30 107.5q0 57 -32 91.5t-85 34.5q-45 0 -86 -24.5t-68 -66.5l-71 82q43 58 110 91t138 33q101 0 165 -62.5t64 -160.5q0 -61 -28.5 -125.5t-85 -131t-140.5 -134.5h264v-116z" />
    <glyph glyph-name="threesuperior" unicode="&#xb3;" horiz-adv-x="712" 
d="M123 869l53 97q77 -61 153 -61q54 0 88.5 31t34.5 78q0 52 -42.5 79.5t-120.5 27.5h-33v94h33q62 0 103 29.5t41 72.5q0 39 -30 63.5t-76 24.5q-65 0 -130 -54l-60 91q83 78 203 78q95 0 156.5 -51t61.5 -129q0 -57 -31.5 -101t-85.5 -67q68 -19 108 -65t40 -111
q0 -89 -70.5 -147.5t-177.5 -58.5q-124 0 -218 79z" />
    <glyph glyph-name="acute" unicode="&#xb4;" horiz-adv-x="509" 
d="M249 1164h-176l147 336h226z" />
    <glyph glyph-name="mu" unicode="&#xb5;" horiz-adv-x="1307" 
d="M1268 -20q-119 0 -199 39.5t-122 120.5q-52 -76 -132.5 -118t-181.5 -42q-170 0 -264 117v-597h-233v1500h243v-513q0 -131 65 -208.5t174 -77.5q108 0 171 77t63 209v513h246v-650q0 -189 184 -189z" />
    <glyph glyph-name="paragraph" unicode="&#xb6;" horiz-adv-x="1306" 
d="M1173 -150h-173v1478h-183v-1478h-173v795q-161 0 -280.5 54t-185 152.5t-65.5 230.5q0 129 63 223t180 144.5t278 50.5h539v-1650z" />
    <glyph glyph-name="periodcentered" unicode="&#xb7;" horiz-adv-x="477" 
d="M239 406q-56 0 -90 34.5t-34 89.5t34 89.5t90 34.5q55 0 89.5 -34.5t34.5 -89.5t-34.5 -89.5t-89.5 -34.5z" />
    <glyph glyph-name="cedilla" unicode="&#xb8;" horiz-adv-x="570" 
d="M103 -393l40 104q41 -19 84 -19q49 0 80.5 24t31.5 62t-34.5 63t-92.5 25h-11t-11 -1l55 142h97l-42 -94q75 -7 119.5 -49t44.5 -108q0 -77 -61 -127.5t-158 -50.5q-70 0 -142 29z" />
    <glyph glyph-name="onesuperior" unicode="&#xb9;" horiz-adv-x="493" 
d="M360 780h-141v587l-124 -45l-42 108l194 70h113v-720z" />
    <glyph glyph-name="ordmasculine" unicode="&#xba;" horiz-adv-x="828" 
d="M415 800q-104 0 -186 47t-129 128.5t-47 184.5q0 104 47 185.5t128.5 128t186.5 46.5t186 -46.5t127.5 -128t46.5 -185.5t-46.5 -185.5t-128 -128t-185.5 -46.5zM415 930q63 0 112 29.5t77 82t28 118.5q0 67 -28 119t-77 82t-112 30q-62 0 -112 -30t-78.5 -82t-28.5 -119
q0 -66 28.5 -118.5t78 -82t112.5 -29.5z" />
    <glyph glyph-name="guillemotright" unicode="&#xbb;" horiz-adv-x="1184" 
d="M365 111h-232l335 385l-335 386h232l323 -385zM808 111h-233l336 385l-336 386h233l323 -385z" />
    <glyph glyph-name="onequarter" unicode="&#xbc;" horiz-adv-x="1636" 
d="M389 0h-158l1022 1540h151zM410 780h-141v587l-124 -45l-42 108l194 70h113v-720zM1448 0h-135v153h-346v104l350 463h131v-449h85v-118h-85v-153zM1088 271h225v298z" />
    <glyph glyph-name="onehalf" unicode="&#xbd;" horiz-adv-x="1683" 
d="M389 0h-158l1022 1540h151zM410 780h-141v587l-124 -45l-42 108l194 70h113v-720zM1580 0h-454v76q115 102 183 174.5t97 129t29 108.5q0 61 -33 97.5t-85 36.5q-80 0 -136 -85l-72 85q42 57 103.5 87.5t129.5 30.5q96 0 164 -61t68 -166q0 -66 -30.5 -133t-88 -133
t-137.5 -129h262v-118z" />
    <glyph glyph-name="threequarters" unicode="&#xbe;" horiz-adv-x="1644" 
d="M397 0h-159l1022 1540h152zM103 864l52 99q75 -60 145 -60q53 0 88 30.5t35 76.5q0 50 -43.5 79.5t-115.5 29.5h-29v95h22q63 0 104.5 29.5t41.5 72.5q0 38 -29.5 62.5t-73.5 24.5q-58 0 -124 -49l-59 91q84 75 197 75q94 0 154.5 -50t60.5 -127q0 -57 -33 -103t-90 -70
q72 -20 113 -67t41 -112q0 -87 -70.5 -145t-176.5 -58q-119 0 -210 76zM1455 0h-134v153h-346v104l350 463h130v-449h86v-118h-86v-153zM1096 271h225v298z" />
    <glyph glyph-name="questiondown" unicode="&#xbf;" horiz-adv-x="932" 
d="M552 1030q55 0 89.5 -34t34.5 -89q0 -56 -34.5 -90.5t-89.5 -34.5t-89.5 34.5t-34.5 90.5q0 55 34.5 89t89.5 34zM773 -182l106 -201q-181 -137 -394 -137q-122 0 -212 43t-140 121.5t-50 184.5q0 74 22.5 128t58.5 97.5t78 86.5q49 51 96 110t78 142.5t31 207.5h211
q0 -148 -31.5 -246t-78 -162t-90.5 -114q-46 -51 -78.5 -98.5t-32.5 -112.5q0 -78 49 -123.5t133 -45.5q68 0 131.5 31.5t112.5 87.5z" />
    <glyph glyph-name="Agrave" unicode="&#xc0;" horiz-adv-x="1550" 
d="M855 1664h-176l-196 336h225zM308 0h-277l604 1500h281l603 -1500h-277l-137 350h-660zM532 581h486l-243 621z" />
    <glyph glyph-name="Aacute" unicode="&#xc1;" horiz-adv-x="1550" 
d="M874 1664h-175l146 336h226zM308 0h-277l604 1500h281l603 -1500h-277l-137 350h-660zM532 581h486l-243 621z" />
    <glyph glyph-name="Acircumflex" unicode="&#xc2;" horiz-adv-x="1550" 
d="M1095 1664h-183l-138 234l-138 -234h-181l217 336h205zM308 0h-277l604 1500h281l603 -1500h-277l-137 350h-660zM532 581h486l-243 621z" />
    <glyph glyph-name="Atilde" unicode="&#xc3;" horiz-adv-x="1550" 
d="M1136 1961q-4 -117 -57 -179t-149 -62q-58 0 -99 21t-81 52q-26 20 -56 36.5t-70 16.5q-102 0 -115 -116h-95q10 240 207 240q65 0 108.5 -22.5t78.5 -47.5q30 -22 59.5 -38t66.5 -16q94 0 107 115h95zM308 0h-277l604 1500h281l603 -1500h-277l-137 350h-660zM532 581
h486l-243 621z" />
    <glyph glyph-name="Adieresis" unicode="&#xc4;" horiz-adv-x="1550" 
d="M308 0h-277l604 1500h281l603 -1500h-277l-137 350h-660zM532 581h486l-243 621zM1001 1724q-49 0 -79.5 30.5t-30.5 79.5q0 50 30.5 80t79.5 30t79 -30t30 -80q0 -49 -30 -79.5t-79 -30.5zM549 1724q-49 0 -79.5 30.5t-30.5 79.5q0 50 30.5 80t79.5 30q50 0 80 -30
t30 -80q0 -49 -30 -79.5t-80 -30.5z" />
    <glyph glyph-name="Aring" unicode="&#xc5;" horiz-adv-x="1550" 
d="M774 1585q-98 0 -158 58.5t-60 153.5q0 96 60 154.5t158 58.5q99 0 159 -58.5t60 -154.5q0 -95 -60 -153.5t-159 -58.5zM774 1686q49 0 79 30.5t30 80.5t-29.5 80.5t-79.5 30.5q-49 0 -79 -30.5t-30 -80.5t30 -80.5t79 -30.5zM308 0h-277l604 1500h281l603 -1500h-277
l-137 350h-660zM533 581h485l-243 621z" />
    <glyph glyph-name="AE" unicode="&#xc6;" horiz-adv-x="2196" 
d="M2113 0h-938l-46 335h-629l-175 -335h-300l802 1500h1082l31 -231h-673l55 -397h635l31 -231h-636l57 -409h673zM620 566h478l-99 723h-5z" />
    <glyph glyph-name="Ccedilla" unicode="&#xc7;" horiz-adv-x="1509" 
d="M1422 190q-96 -95 -223.5 -152t-279.5 -66l-26 -59q75 -7 119.5 -49t44.5 -108q0 -77 -61.5 -127.5t-157.5 -50.5q-70 0 -142 29l39 104q41 -19 85 -19q49 0 80.5 24t31.5 62t-34.5 63t-92.5 25h-11t-11 -1l41 106q-163 7 -299.5 67.5t-237.5 165t-156.5 244t-55.5 302.5
q0 169 58.5 311t164.5 247.5t250 163.5t313 58t312 -58t247 -161l-184 -187q-69 82 -166 128t-213 46q-110 0 -203.5 -41t-162.5 -115t-107.5 -174t-38.5 -218t38.5 -217.5t107.5 -174t162.5 -115.5t203.5 -41q116 0 213 46t166 128z" />
    <glyph glyph-name="Egrave" unicode="&#xc8;" horiz-adv-x="1217" 
d="M727 1664h-176l-196 336h225zM133 0v1500h951v-232h-687v-395h647v-231h-647v-410h697v-232h-961z" />
    <glyph glyph-name="Eacute" unicode="&#xc9;" horiz-adv-x="1217" 
d="M678 1664h-176l146 336h227zM133 0v1500h951v-232h-687v-395h647v-231h-647v-410h697v-232h-961z" />
    <glyph glyph-name="Ecircumflex" unicode="&#xca;" horiz-adv-x="1217" 
d="M934 1664h-181l-139 234l-138 -234h-181l217 336h205zM133 0v1500h951v-232h-687v-395h647v-231h-647v-410h697v-232h-961z" />
    <glyph glyph-name="Edieresis" unicode="&#xcb;" horiz-adv-x="1217" 
d="M133 0v1500h951v-232h-687v-395h647v-231h-647v-410h697v-232h-961zM835 1724q-49 0 -79.5 30.5t-30.5 79.5q0 50 30.5 80t79.5 30t79 -30t30 -80q0 -49 -30 -79.5t-79 -30.5zM383 1724q-49 0 -79.5 30.5t-30.5 79.5q0 50 30.5 80t79.5 30q50 0 80 -30t30 -80
q0 -49 -30 -79.5t-80 -30.5z" />
    <glyph glyph-name="Igrave" unicode="&#xcc;" horiz-adv-x="531" 
d="M355 1664l-146 336h-227l197 -336h176zM398 1500h-264v-1500h264v1500z" />
    <glyph glyph-name="Iacute" unicode="&#xcd;" horiz-adv-x="530" 
d="M355 1664l197 336h-226l-147 -336h176zM397 1500h-264v-1500h264v1500z" />
    <glyph glyph-name="Icircumflex" unicode="&#xce;" horiz-adv-x="531" 
d="M585 1664l-217 336h-205l-217 -336h181l138 234l139 -234h181zM398 1500h-264v-1500h264v1500z" />
    <glyph glyph-name="Idieresis" unicode="&#xcf;" horiz-adv-x="530" 
d="M397 1500h-264v-1500h264v1500zM492 1724q-49 0 -79.5 30.5t-30.5 79.5q0 50 30.5 80t79.5 30t79 -30t30 -80q0 -49 -30 -79.5t-79 -30.5zM40 1724q-49 0 -79.5 30.5t-30.5 79.5q0 50 30.5 80t79.5 30q50 0 80 -30t30 -80q0 -49 -30 -79.5t-80 -30.5z" />
    <glyph glyph-name="Eth" unicode="&#xd0;" horiz-adv-x="1604" 
d="M192 0v651h-179v189h179v660h472q273 0 472 -91t307 -259.5t108 -399.5q0 -230 -108 -399t-307 -260t-472 -91h-472zM813 651h-357v-419h218q193 0 328.5 60.5t207 176.5t71.5 281t-71.5 281t-207 176.5t-328.5 60.5h-218v-428h357v-189z" />
    <glyph glyph-name="Ntilde" unicode="&#xd1;" horiz-adv-x="1610" 
d="M1184 1961q-5 -117 -57.5 -179t-148.5 -62q-59 0 -99 21t-78 49q-29 22 -59 39t-69 17q-103 0 -116 -116h-95q11 240 208 240q65 0 107.5 -22.5t78.5 -47.5q30 -22 59.5 -38t66.5 -16q94 0 107 115h95zM1477 0h-298l-782 1091v-1091h-264v1500h298l782 -1092v1092h264
v-1500z" />
    <glyph glyph-name="Ograve" unicode="&#xd2;" horiz-adv-x="1721" 
d="M967 1664h-176l-196 336h225zM861 -30q-170 0 -313.5 58t-249.5 163.5t-164.5 248t-58.5 310.5q0 169 58.5 311t164.5 247.5t249.5 163.5t314.5 58q170 0 313 -58t249 -163.5t164 -247.5t58 -311q0 -168 -58 -310.5t-164 -248t-249 -163.5t-314 -58zM861 202
q111 0 205 41t163.5 115.5t108 174.5t38.5 217t-38.5 217t-108 174.5t-163.5 115.5t-205 41q-110 0 -204.5 -41t-164 -115.5t-108.5 -174.5t-39 -217t39 -217t108.5 -174.5t164 -115.5t204.5 -41z" />
    <glyph glyph-name="Oacute" unicode="&#xd3;" horiz-adv-x="1721" 
d="M931 1664h-176l146 336h226zM862 -30q-170 0 -314 58t-250 163.5t-164.5 248t-58.5 310.5q0 169 58.5 311t164.5 247.5t250 163.5t314 58t313.5 -58t249 -163.5t163.5 -247.5t58 -311q0 -168 -58 -310.5t-163.5 -248t-249 -163.5t-313.5 -58zM861 202q111 0 205 41
t163.5 115.5t108 174.5t38.5 217t-38.5 217t-108 174.5t-163.5 115.5t-205 41q-110 0 -204.5 -41t-164 -115.5t-108.5 -174.5t-39 -217t39 -217t108.5 -174.5t164 -115.5t204.5 -41z" />
    <glyph glyph-name="Ocircumflex" unicode="&#xd4;" horiz-adv-x="1721" 
d="M1181 1664h-182l-138 234l-138 -234h-181l217 336h205zM862 -30q-170 0 -314 58t-250 163.5t-164.5 248t-58.5 310.5q0 169 58.5 311t164.5 247.5t250 163.5t314 58t313.5 -58t249 -163.5t163.5 -247.5t58 -311q0 -168 -58 -310.5t-163.5 -248t-249 -163.5t-313.5 -58z
M861 202q111 0 205 41t163.5 115.5t108 174.5t38.5 217t-38.5 217t-108 174.5t-163.5 115.5t-205 41q-110 0 -204.5 -41t-164 -115.5t-108.5 -174.5t-39 -217t39 -217t108.5 -174.5t164 -115.5t204.5 -41z" />
    <glyph glyph-name="Otilde" unicode="&#xd5;" horiz-adv-x="1721" 
d="M1222 1961q-5 -117 -58 -179t-149 -62q-58 0 -98.5 21t-81.5 52q-26 20 -56 36.5t-69 16.5q-103 0 -115 -116h-96q11 240 208 240q65 0 108.5 -22.5t77.5 -47.5q30 -22 60 -38t67 -16q94 0 106 115h96zM861 -30q-170 0 -313.5 58t-249.5 163.5t-164.5 248t-58.5 310.5
q0 169 58.5 311t164.5 247.5t249.5 163.5t314.5 58q170 0 313 -58t249 -163.5t164 -247.5t58 -311q0 -168 -58 -310.5t-164 -248t-249 -163.5t-314 -58zM861 202q111 0 205 41t163.5 115.5t108 174.5t38.5 217t-38.5 217t-108 174.5t-163.5 115.5t-205 41q-110 0 -204.5 -41
t-164 -115.5t-108.5 -174.5t-39 -217t39 -217t108.5 -174.5t164 -115.5t204.5 -41z" />
    <glyph glyph-name="Odieresis" unicode="&#xd6;" horiz-adv-x="1721" 
d="M861 -30q-170 0 -313.5 58t-249.5 163.5t-164.5 248t-58.5 310.5q0 169 58.5 311t164.5 247.5t249.5 163.5t314.5 58q170 0 313 -58t249 -163.5t164 -247.5t58 -311q0 -168 -58 -310.5t-164 -248t-249 -163.5t-314 -58zM861 202q111 0 205 41t163.5 115.5t108 174.5
t38.5 217t-38.5 217t-108 174.5t-163.5 115.5t-205 41q-110 0 -204.5 -41t-164 -115.5t-108.5 -174.5t-39 -217t39 -217t108.5 -174.5t164 -115.5t204.5 -41zM1087 1724q-49 0 -79.5 30.5t-30.5 79.5q0 50 30.5 80t79.5 30t79 -30t30 -80q0 -49 -30 -79.5t-79 -30.5z
M635 1724q-49 0 -79.5 30.5t-30.5 79.5q0 50 30.5 80t79.5 30q50 0 80 -30t30 -80q0 -49 -30 -79.5t-80 -30.5z" />
    <glyph glyph-name="multiply" unicode="&#xd7;" horiz-adv-x="1054" 
d="M818 63l-291 291l-291 -291l-139 139l292 291l-292 291l139 139l291 -292l291 292l139 -139l-292 -291l292 -291z" />
    <glyph glyph-name="Oslash" unicode="&#xd8;" horiz-adv-x="1721" 
d="M584 -84l-111 49l34 81q-131 61 -228.5 165.5t-150.5 241.5t-53 297q0 169 58.5 311t164.5 247.5t249.5 163.5t313.5 58q65 0 127.5 -9t119.5 -27l35 86l112 -45l-35 -83q130 -62 225.5 -166t148 -240t52.5 -296q0 -168 -58 -310.5t-164 -248t-249 -163.5t-314 -58
q-63 0 -123.5 8.5t-116.5 25.5zM601 273l416 1002q-37 11 -76 17t-80 6q-111 0 -205 -41t-164 -115.5t-109 -174.5t-39 -217q0 -105 32 -196.5t89.5 -163t135.5 -117.5zM861 202q110 0 204.5 41t164 115.5t108 174.5t38.5 217q0 104 -30.5 194.5t-87 162t-133.5 116.5
l-413 -1000q35 -10 72.5 -15.5t76.5 -5.5z" />
    <glyph glyph-name="Ugrave" unicode="&#xd9;" horiz-adv-x="1559" 
d="M886 1664h-176l-197 336h226zM1426 1500v-827q0 -218 -77.5 -376t-222 -242.5t-346.5 -84.5q-201 0 -346 84.5t-223 242.5t-78 376v827h264v-797q0 -163 44 -275t130 -169t209 -57q124 0 209 57t129 169t44 275v797h264z" />
    <glyph glyph-name="Uacute" unicode="&#xda;" horiz-adv-x="1559" 
d="M849 1664h-175l146 336h226zM1426 1500v-827q0 -218 -77.5 -376t-222 -242.5t-346.5 -84.5q-201 0 -346 84.5t-223 242.5t-78 376v827h264v-797q0 -163 44 -275t130 -169t209 -57q124 0 209 57t129 169t44 275v797h264z" />
    <glyph glyph-name="Ucircumflex" unicode="&#xdb;" horiz-adv-x="1559" 
d="M1100 1664h-182l-138 234l-138 -234h-182l218 336h204zM1426 1500v-827q0 -218 -77.5 -376t-222 -242.5t-346.5 -84.5q-201 0 -346 84.5t-223 242.5t-78 376v827h264v-797q0 -163 44 -275t130 -169t209 -57q124 0 209 57t129 169t44 275v797h264z" />
    <glyph glyph-name="Udieresis" unicode="&#xdc;" horiz-adv-x="1559" 
d="M1426 1500v-827q0 -218 -77.5 -376t-222.5 -242.5t-347 -84.5q-201 0 -346 84.5t-222.5 242.5t-77.5 376v827h264v-797q0 -163 44 -275t129.5 -169t208.5 -57q124 0 209.5 57t129.5 169t44 275v797h264zM1006 1724q-49 0 -79.5 30.5t-30.5 79.5q0 50 30.5 80t79.5 30
t79 -30t30 -80q0 -49 -30 -79.5t-79 -30.5zM554 1724q-49 0 -79.5 30.5t-30.5 79.5q0 50 30.5 80t79.5 30q50 0 80 -30t30 -80q0 -49 -30 -79.5t-80 -30.5z" />
    <glyph glyph-name="Yacute" unicode="&#xdd;" horiz-adv-x="1447" 
d="M793 1664h-175l146 336h226zM855 0h-264v641l-572 859h320l383 -630l386 630h320l-573 -861v-639z" />
    <glyph glyph-name="Thorn" unicode="&#xde;" 
d="M380 0h-247v1500h247v-304h230q153 0 265.5 -54.5t173.5 -154t61 -235.5t-61.5 -236.5t-173.5 -156t-265 -55.5h-230v-304zM380 525h182q144 0 220 58.5t76 166.5q0 109 -76 167t-221 58h-181v-450z" />
    <glyph glyph-name="germandbls" unicode="&#xdf;" horiz-adv-x="1217" 
d="M397 0h-264v1094q0 130 58.5 228t163.5 153t244 55q136 0 240.5 -49t164 -135t59.5 -198q0 -78 -26 -131t-63.5 -88t-72.5 -61q-30 -22 -51 -41.5t-21 -43.5q0 -22 23 -41t71 -47q41 -25 79 -53t67.5 -63.5t47 -82.5t17.5 -109q0 -121 -66 -213t-184 -143t-274 -51
l-50 225q95 0 165 30t109.5 83t39.5 123q0 55 -22.5 91t-57 61.5t-70.5 46.5q-47 28 -83.5 58.5t-36.5 82.5q0 43 25.5 70.5t59.5 52.5q27 21 53.5 45t43.5 58.5t17 87.5q0 60 -25 106t-69.5 71.5t-104.5 25.5q-96 0 -151.5 -68t-55.5 -186v-1044z" />
    <glyph glyph-name="agrave" unicode="&#xe0;" horiz-adv-x="1110" 
d="M672 1164h-177l-196 336h226zM997 0h-214l-14 123q-55 -68 -137 -105.5t-182 -37.5q-106 0 -189 41.5t-130.5 113.5t-47.5 164q0 97 51.5 170.5t141 115.5t204.5 42q70 0 140.5 -16t130.5 -45v32q0 66 -36 114t-97 74.5t-137 26.5q-69 0 -138 -23.5t-129 -69.5l-70 193
q96 53 196.5 80t196.5 27q141 0 244 -55.5t159.5 -158t56.5 -241.5v-565zM500 178q66 0 123.5 29.5t92 79.5t34.5 110v6q-44 34 -102.5 52.5t-120.5 18.5q-94 0 -153 -41.5t-59 -108.5q0 -41 24 -74.5t66 -52.5t95 -19z" />
    <glyph glyph-name="aacute" unicode="&#xe1;" horiz-adv-x="1110" 
d="M626 1164h-175l146 336h227zM997 0h-214l-14 123q-55 -68 -137 -105.5t-182 -37.5q-106 0 -189 41.5t-130.5 113.5t-47.5 164q0 97 51.5 170.5t141 115.5t204.5 42q70 0 140.5 -16t130.5 -45v32q0 66 -36 114t-97 74.5t-137 26.5q-69 0 -138 -23.5t-129 -69.5l-70 193
q96 53 196.5 80t196.5 27q141 0 244 -55.5t159.5 -158t56.5 -241.5v-565zM500 178q66 0 123.5 29.5t92 79.5t34.5 110v6q-44 34 -102.5 52.5t-120.5 18.5q-94 0 -153 -41.5t-59 -108.5q0 -41 24 -74.5t66 -52.5t95 -19z" />
    <glyph glyph-name="acircumflex" unicode="&#xe2;" horiz-adv-x="1110" 
d="M881 1164h-182l-138 234l-139 -234h-181l217 336h206zM997 0h-214l-14 123q-55 -68 -137 -105.5t-182 -37.5q-106 0 -189 41.5t-130.5 113.5t-47.5 164q0 97 51.5 170.5t141 115.5t204.5 42q70 0 140.5 -16t130.5 -45v32q0 66 -36 114t-97 74.5t-137 26.5
q-69 0 -138 -23.5t-129 -69.5l-70 193q96 53 196.5 80t196.5 27q141 0 244 -55.5t159.5 -158t56.5 -241.5v-565zM500 178q66 0 123.5 29.5t92 79.5t34.5 110v6q-44 34 -102.5 52.5t-120.5 18.5q-94 0 -153 -41.5t-59 -108.5q0 -41 24 -74.5t66 -52.5t95 -19z" />
    <glyph glyph-name="atilde" unicode="&#xe3;" horiz-adv-x="1110" 
d="M917 1461q-5 -117 -58 -179t-149 -62q-58 0 -98.5 21t-80.5 52q-28 21 -57.5 37t-68.5 16q-103 0 -116 -116h-95q11 240 207 240q65 0 108.5 -22t78.5 -48q30 -22 59.5 -38t66.5 -16q94 0 107 115h96zM997 0h-214l-14 123q-55 -68 -137 -105.5t-182 -37.5
q-106 0 -189 41.5t-130.5 113.5t-47.5 164q0 97 51.5 170.5t141 115.5t204.5 42q70 0 140.5 -16t130.5 -45v32q0 66 -36 114t-97 74.5t-137 26.5q-69 0 -138 -23.5t-129 -69.5l-70 193q96 53 196.5 80t196.5 27q141 0 244 -55.5t159.5 -158t56.5 -241.5v-565zM500 178
q66 0 123 29.5t91.5 79.5t35.5 110v6q-44 34 -102.5 52.5t-120.5 18.5q-94 0 -153 -41.5t-59 -108.5q0 -41 24 -74.5t66 -52.5t95 -19z" />
    <glyph glyph-name="adieresis" unicode="&#xe4;" horiz-adv-x="1110" 
d="M997 0h-214l-14 123q-55 -68 -137 -105.5t-182 -37.5q-106 0 -189 41.5t-130.5 113.5t-47.5 164q0 97 51.5 170.5t141 115.5t204.5 42q70 0 140.5 -16t130.5 -45v32q0 66 -36 114t-97 74.5t-137 26.5q-69 0 -138 -23.5t-129 -69.5l-70 193q96 53 196.5 80t196.5 27
q141 0 244 -55.5t159.5 -158t56.5 -241.5v-565zM501 178q65 0 120.5 27t91 75.5t37.5 111.5v11q-47 34 -106 52.5t-119 18.5q-92 0 -151 -41.5t-59 -108.5q0 -41 24 -74.5t66.5 -52.5t95.5 -19zM801 1224q-49 0 -79.5 30.5t-30.5 79.5q0 50 30.5 80t79.5 30t79 -30t30 -80
q0 -49 -30 -79.5t-79 -30.5zM349 1224q-49 0 -79.5 30.5t-30.5 79.5q0 50 30.5 80t79.5 30q50 0 80 -30t30 -80q0 -49 -30 -79.5t-80 -30.5z" />
    <glyph glyph-name="aring" unicode="&#xe5;" horiz-adv-x="1110" 
d="M561 1096q-98 0 -158.5 58t-60.5 154q0 95 60.5 153.5t158.5 58.5q99 0 159 -58.5t60 -153.5q0 -96 -60 -154t-159 -58zM561 1197q49 0 79 30.5t30 80.5t-30 80t-79 30t-79 -30t-30 -80t30 -80.5t79 -30.5zM997 0h-214l-14 123q-55 -68 -137 -105.5t-182 -37.5
q-106 0 -189 41.5t-130.5 113.5t-47.5 164q0 97 51.5 170.5t141 115.5t204.5 42q70 0 140.5 -16t130.5 -45v32q0 66 -36 114t-97 74.5t-137 26.5q-69 0 -138 -23.5t-129 -69.5l-70 193q96 53 196.5 80t196.5 27q141 0 244 -55.5t159.5 -158t56.5 -241.5v-565zM500 178
q66 0 123.5 29.5t92 79.5t34.5 110v6q-44 34 -102.5 52.5t-120.5 18.5q-94 0 -153 -41.5t-59 -108.5q0 -41 24 -74.5t66 -52.5t95 -19z" />
    <glyph glyph-name="ae" unicode="&#xe6;" horiz-adv-x="1843" 
d="M1718 114q-178 -134 -397 -134q-136 0 -251 54.5t-189 152.5q-37 -64 -96.5 -110.5t-135.5 -71.5t-164 -25q-117 0 -208 42t-142.5 115.5t-51.5 167.5q0 97 53.5 171.5t146.5 116.5t214 42q143 0 267 -62l-2 7q-12 102 -89 164t-192 62q-148 0 -278 -94l-67 201
q90 53 185.5 80t186.5 27q123 0 218.5 -49t152.5 -141q69 91 173.5 140.5t227.5 49.5q149 0 261 -71t174.5 -198t62.5 -296v-32h-770q19 -70 65.5 -123t113.5 -82.5t150 -29.5q159 0 296 104zM998 554h553q-9 74 -46.5 129t-96 85.5t-133.5 30.5t-134.5 -31t-96.5 -86
t-46 -128zM768 407q-47 37 -106.5 56t-123.5 19q-66 0 -116.5 -19t-78.5 -53.5t-28 -80.5q0 -44 25.5 -78.5t71.5 -54t106 -19.5q65 0 119.5 23.5t89 68.5t39.5 109z" />
    <glyph glyph-name="ccedilla" unicode="&#xe7;" horiz-adv-x="1062" 
d="M1001 154q-65 -75 -157 -119.5t-201 -52.5l-31 -69q75 -7 119.5 -49t44.5 -108q0 -77 -61 -127.5t-158 -50.5q-70 0 -142 29l40 104q41 -19 84 -19q49 0 80.5 24t31.5 62t-34.5 63t-92.5 25h-11t-11 -1l45 117q-139 11 -248 80.5t-171.5 183t-62.5 254.5
q0 149 69.5 266.5t190 185.5t272.5 68q122 0 225.5 -45t176.5 -127l-144 -153q-45 49 -108.5 76t-134.5 27q-86 0 -152.5 -38t-104 -105t-37.5 -154t37.5 -154.5t104 -106t152.5 -38.5q71 0 135 27.5t108 75.5z" />
    <glyph glyph-name="egrave" unicode="&#xe8;" horiz-adv-x="1165" 
d="M1040 116q-187 -136 -409 -136q-161 0 -289 70t-202.5 191t-74.5 274q0 145 67.5 259t185 180t265.5 66q154 0 270.5 -72.5t181.5 -201t65 -298.5v-32h-770q18 -68 63.5 -120t113.5 -81t153 -29q160 0 296 104zM320 560h552q-8 75 -45.5 131t-97 87.5t-133.5 31.5
q-75 0 -134 -32t-96 -88.5t-46 -129.5zM700 1164h-176l-197 336h226z" />
    <glyph glyph-name="eacute" unicode="&#xe9;" horiz-adv-x="1165" 
d="M1040 116q-187 -136 -409 -136q-161 0 -289 70t-202.5 191t-74.5 274q0 145 67.5 259t185 180t265.5 66q154 0 270.5 -72.5t181.5 -201t65 -298.5v-32h-770q18 -68 63.5 -120t113.5 -81t153 -29q160 0 296 104zM320 560h552q-8 75 -45.5 131t-97 87.5t-133.5 31.5
q-75 0 -134 -32t-96 -88.5t-46 -129.5zM673 1164h-176l147 336h226z" />
    <glyph glyph-name="ecircumflex" unicode="&#xea;" horiz-adv-x="1165" 
d="M1040 116q-187 -136 -409 -136q-161 0 -289 70t-202.5 191t-74.5 274q0 145 67.5 259t185 180t265.5 66q154 0 270.5 -72.5t181.5 -201t65 -298.5v-32h-770q18 -68 63.5 -120t113.5 -81t153 -29q160 0 296 104zM320 560h552q-8 75 -45.5 131t-97 87.5t-133.5 31.5
q-75 0 -134 -32t-96 -88.5t-46 -129.5zM903 1164h-182l-139 234l-137 -234h-182l217 336h205z" />
    <glyph glyph-name="edieresis" unicode="&#xeb;" horiz-adv-x="1165" 
d="M1040 116q-187 -136 -409 -136q-161 0 -289 70t-202.5 191t-74.5 274q0 145 67.5 259t185 180t265.5 66q154 0 270.5 -72.5t181.5 -201t65 -298.5v-32h-770q18 -68 63.5 -120t113.5 -81t153 -29q160 0 296 104zM320 560h552q-8 75 -45.5 131t-97 87.5t-133.5 31.5
q-75 0 -134 -32t-96 -88.5t-46 -129.5zM809 1224q-49 0 -79.5 30.5t-30.5 79.5q0 50 30.5 80t79.5 30t79 -30t30 -80q0 -49 -30 -79.5t-79 -30.5zM357 1224q-49 0 -79.5 30.5t-30.5 79.5q0 50 30.5 80t79.5 30q50 0 80 -30t30 -80q0 -49 -30 -79.5t-80 -30.5z" />
    <glyph glyph-name="igrave" unicode="&#xec;" horiz-adv-x="513" 
d="M358 1164h-176l-196 336h226zM380 0h-247v1000h247v-1000z" />
    <glyph glyph-name="iacute" unicode="&#xed;" horiz-adv-x="512" 
d="M331 1164h-176l147 336h226zM378 0h-245v1000h245v-1000z" />
    <glyph glyph-name="icircumflex" unicode="&#xee;" horiz-adv-x="513" 
d="M577 1164h-182l-138 234l-139 -234h-181l218 336h204zM380 0h-246v1000h246v-1000z" />
    <glyph glyph-name="idieresis" unicode="&#xef;" horiz-adv-x="513" 
d="M380 0h-247v1000h247v-1000zM482 1224q-49 0 -79.5 30.5t-30.5 79.5q0 50 30.5 80t79.5 30t79 -30t30 -80q0 -49 -30 -79.5t-79 -30.5zM30 1224q-49 0 -79.5 30.5t-30.5 79.5q0 50 30.5 80t79.5 30q50 0 80 -30t30 -80q0 -49 -30 -79.5t-80 -30.5z" />
    <glyph glyph-name="eth" unicode="&#xf0;" horiz-adv-x="1165" 
d="M1033 1274l-180 -72q125 -143 192 -311.5t67 -346.5q0 -174 -62.5 -303t-178 -200t-271.5 -71q-150 0 -266.5 63.5t-183.5 174t-67 253.5q0 131 57.5 232.5t159 159t233.5 57.5q101 0 184 -36t141 -101q-32 93 -87 181.5t-131 166.5l-314 -128l-41 101l271 109
q-48 39 -95 70.5t-106 59.5l109 167q85 -45 162 -99.5t143 -114.5l224 88zM596 201q69 0 124 35.5t87 96t32 136.5t-32 135t-87.5 93t-126.5 34q-70 0 -124 -33t-85 -91t-31 -134t32 -138t87.5 -98t123.5 -36z" />
    <glyph glyph-name="ntilde" unicode="&#xf1;" 
d="M979 1461q-5 -117 -57.5 -179t-148.5 -62q-59 0 -99 21t-78 49q-29 22 -59 39t-69 17q-103 0 -116 -116h-95q10 240 208 240q65 0 107.5 -22.5t78.5 -47.5q30 -22 59 -38t66 -16q95 0 108 115h95zM1110 0h-246v528q0 125 -64 197.5t-173 72.5q-112 0 -180 -76.5
t-68 -205.5v-516h-246v1000h203l8 -161q54 88 142.5 134.5t207.5 46.5q194 0 305 -118t111 -326v-576z" />
    <glyph glyph-name="ograve" unicode="&#xf2;" horiz-adv-x="1192" 
d="M703 1164h-176l-196 336h225zM597 -20q-152 0 -272.5 68t-190 185.5t-69.5 266.5t69.5 266.5t190 185.5t272.5 68q153 0 273 -68t188.5 -185.5t68.5 -266.5t-68.5 -266.5t-188.5 -185.5t-273 -68zM596 201q80 0 143 39t99.5 107t36.5 154t-36.5 153t-99.5 106.5
t-143 39.5q-79 0 -142.5 -39.5t-100 -106.5t-36.5 -153t36.5 -154t100 -107t142.5 -39z" />
    <glyph glyph-name="oacute" unicode="&#xf3;" horiz-adv-x="1192" 
d="M666 1164h-175l146 336h226zM597 -20q-152 0 -272.5 68t-190 185.5t-69.5 266.5t69.5 266.5t190 185.5t272.5 68q153 0 273 -68t188.5 -185.5t68.5 -266.5t-68.5 -266.5t-188.5 -185.5t-273 -68zM596 201q80 0 143 39t99.5 107t36.5 154t-36.5 153t-99.5 106.5t-143 39.5
q-79 0 -142.5 -39.5t-100 -106.5t-36.5 -153t36.5 -154t100 -107t142.5 -39z" />
    <glyph glyph-name="ocircumflex" unicode="&#xf4;" horiz-adv-x="1192" 
d="M917 1164h-182l-139 234l-137 -234h-182l218 336h204zM597 -20q-152 0 -272.5 68t-190 185.5t-69.5 266.5t69.5 266.5t190 185.5t272.5 68q153 0 273 -68t188.5 -185.5t68.5 -266.5t-68.5 -266.5t-188.5 -185.5t-273 -68zM596 201q80 0 143 39t99.5 107t36.5 154
t-36.5 153t-99.5 106.5t-143 39.5q-79 0 -142.5 -39.5t-100 -106.5t-36.5 -153t36.5 -154t100 -107t142.5 -39z" />
    <glyph glyph-name="otilde" unicode="&#xf5;" horiz-adv-x="1192" 
d="M951 1461q-5 -117 -57.5 -179t-148.5 -62q-59 0 -99 21t-78 49q-29 22 -59 39t-69 17q-103 0 -116 -116h-95q10 240 208 240q65 0 107.5 -22.5t78.5 -47.5q30 -22 59 -38t66 -16q95 0 108 115h95zM597 -20q-152 0 -272.5 68t-190 185.5t-69.5 266.5t69.5 266.5t190 185.5
t272.5 68q153 0 273 -68t188.5 -185.5t68.5 -266.5t-68.5 -266.5t-188.5 -185.5t-273 -68zM596 201q80 0 143 39t99.5 107t36.5 154t-36.5 153t-99.5 106.5t-143 39.5q-79 0 -142.5 -39.5t-100 -106.5t-36.5 -153t36.5 -154t100 -107t142.5 -39z" />
    <glyph glyph-name="odieresis" unicode="&#xf6;" horiz-adv-x="1192" 
d="M597 -20q-152 0 -272.5 68t-190 185.5t-69.5 266.5t69.5 266.5t190 185.5t272.5 68q153 0 273 -68t188.5 -185.5t68.5 -266.5t-68.5 -266.5t-188.5 -185.5t-273 -68zM596 201q80 0 143 39t99.5 107t36.5 154q0 85 -36.5 152.5t-99.5 106.5t-143 39q-79 0 -142.5 -39
t-100 -106.5t-36.5 -152.5q0 -86 36.5 -154t100 -107t142.5 -39zM818 1224q-49 0 -79.5 30.5t-30.5 79.5q0 50 30.5 80t79.5 30t79 -30t30 -80q0 -49 -30 -79.5t-79 -30.5zM366 1224q-49 0 -79.5 30.5t-30.5 79.5q0 50 30.5 80t79.5 30q50 0 80 -30t30 -80q0 -49 -30 -79.5
t-80 -30.5z" />
    <glyph glyph-name="divide" unicode="&#xf7;" horiz-adv-x="1066" 
d="M533 731q-53 0 -88 36t-35 88t35 88.5t88 36.5q52 0 88.5 -36.5t36.5 -88.5t-36.5 -88t-88.5 -36zM933 406h-800v148h800v-148zM533 -20q-52 0 -87.5 36t-35.5 88t35.5 88.5t87.5 36.5t88 -36.5t36 -88.5t-36 -88t-88 -36z" />
    <glyph glyph-name="oslash" unicode="&#xf8;" horiz-adv-x="1192" 
d="M415 -74l-94 37l29 72q-130 62 -207.5 184.5t-77.5 280.5q0 149 69.5 266.5t190 185.5t272.5 68q41 0 78.5 -5t73.5 -15l28 67l95 -38l-26 -64q128 -63 204.5 -185.5t76.5 -279.5q0 -149 -68.5 -266.5t-188.5 -185.5t-273 -68q-40 0 -78 5t-74 14zM439 251l224 541
q-32 8 -67 8q-79 0 -142.5 -39.5t-100 -106.5t-36.5 -153q0 -80 33 -145t89 -105zM596 201q80 0 143.5 39t100 107t36.5 154q0 80 -33 144t-88 103l-223 -540q30 -7 64 -7z" />
    <glyph glyph-name="ugrave" unicode="&#xf9;" 
d="M721 1164h-175l-197 336h226zM1090 0h-203l-8 161q-54 -88 -142 -134.5t-208 -46.5q-193 0 -304.5 118.5t-111.5 326.5v575h246v-528q0 -125 63.5 -197.5t172.5 -72.5q113 0 181 77t68 205v516h246v-1000z" />
    <glyph glyph-name="uacute" unicode="&#xfa;" 
d="M605 1164h-175l146 336h226zM1090 0h-203l-8 161q-54 -88 -142 -134.5t-208 -46.5q-193 0 -304.5 118.5t-111.5 326.5v575h246v-528q0 -125 63.5 -197.5t172.5 -72.5q113 0 181 77t68 205v516h246v-1000z" />
    <glyph glyph-name="ucircumflex" unicode="&#xfb;" 
d="M880 1164h-182l-138 234l-138 -234h-182l218 336h204zM1090 0h-203l-8 161q-54 -88 -142 -134.5t-208 -46.5q-193 0 -304.5 118.5t-111.5 326.5v575h246v-528q0 -125 63.5 -197.5t172.5 -72.5q113 0 181 77t68 205v516h246v-1000z" />
    <glyph glyph-name="udieresis" unicode="&#xfc;" 
d="M1090 0h-203l-8 161q-54 -88 -142 -134.5t-208 -46.5q-193 0 -304.5 118.5t-111.5 326.5v575h246v-528q0 -125 63.5 -197.5t172.5 -72.5q113 0 181 77t68 205v516h246v-1000zM838 1224q-49 0 -79.5 30.5t-30.5 79.5q0 50 30.5 80t79.5 30t79 -30t30 -80q0 -49 -30 -79.5
t-79 -30.5zM386 1224q-49 0 -79.5 30.5t-30.5 79.5q0 50 30.5 80t79.5 30q50 0 80 -30t30 -80q0 -49 -30 -79.5t-80 -30.5z" />
    <glyph glyph-name="yacute" unicode="&#xfd;" horiz-adv-x="1253" 
d="M707 1164h-176l147 336h226zM595 -500h-262l208 504l-504 996h284l337 -715l296 715h262z" />
    <glyph glyph-name="thorn" unicode="&#xfe;" horiz-adv-x="1265" 
d="M379 -500h-246v2000h246v-662q62 85 155.5 133.5t206.5 48.5q136 0 242.5 -68t167.5 -185.5t61 -266.5t-61 -266.5t-167 -185.5t-242 -68q-113 0 -206.5 49t-156.5 134v-663zM670 201q84 0 149.5 39t103 106.5t37.5 152.5q0 87 -37.5 154.5t-103 107t-149.5 39.5
q-79 0 -143 -36t-103 -98.5t-45 -142.5v-48q6 -79 45 -141t103 -97.5t143 -35.5z" />
    <glyph glyph-name="ydieresis" unicode="&#xff;" horiz-adv-x="1254" 
d="M596 -500h-263l208 504l-496 996h277l336 -715l296 715h263zM877 1224q-49 0 -79.5 30.5t-30.5 79.5q0 50 30.5 80t79.5 30t79 -30t30 -80q0 -49 -30 -79.5t-79 -30.5zM425 1224q-49 0 -79.5 30.5t-30.5 79.5q0 50 30.5 80t79.5 30q50 0 80 -30t30 -80q0 -49 -30 -79.5
t-80 -30.5z" />
    <glyph glyph-name="Amacron" unicode="&#x100;" horiz-adv-x="1550" 
d="M1106 1765h-668v142h668v-142zM308 0h-277l604 1500h281l603 -1500h-277l-137 350h-660zM533 581h485l-243 621z" />
    <glyph glyph-name="amacron" unicode="&#x101;" horiz-adv-x="1110" 
d="M890 1265h-670v142h670v-142zM997 0h-214l-14 123q-55 -68 -137 -105.5t-182 -37.5q-106 0 -189 41.5t-130.5 113.5t-47.5 164q0 97 51.5 170.5t141 115.5t204.5 42q70 0 140.5 -16t130.5 -45v32q0 66 -36 114t-97 74.5t-137 26.5q-69 0 -138 -23.5t-129 -69.5l-70 193
q96 53 196.5 80t196.5 27q141 0 244 -55.5t159.5 -158t56.5 -241.5v-565zM500 178q66 0 123.5 29.5t92 79.5t34.5 110v6q-44 34 -102.5 52.5t-120.5 18.5q-94 0 -153 -41.5t-59 -108.5q0 -41 24 -74.5t66 -52.5t95 -19z" />
    <glyph glyph-name="Abreve" unicode="&#x102;" horiz-adv-x="1550" 
d="M1090 2000q0 -94 -40 -166.5t-111.5 -113.5t-163.5 -41q-93 0 -163.5 41t-111 113.5t-40.5 166.5h142q0 -90 47.5 -145t125.5 -55t126 55t48 145h141zM308 0h-277l604 1500h281l603 -1500h-277l-137 350h-660zM532 581h486l-243 621z" />
    <glyph glyph-name="abreve" unicode="&#x103;" horiz-adv-x="1110" 
d="M870 1500q0 -94 -40 -166.5t-111.5 -113.5t-163.5 -41t-163.5 41t-111.5 113.5t-40 166.5h142q0 -90 48 -145t125 -55q79 0 126.5 55t47.5 145h141zM997 0h-214l-14 123q-55 -68 -137 -105.5t-182 -37.5q-106 0 -189 41.5t-130.5 113.5t-47.5 164q0 97 51.5 170.5
t141 115.5t204.5 42q70 0 140.5 -16t130.5 -45v32q0 66 -36 114t-97 74.5t-137 26.5q-69 0 -138 -23.5t-129 -69.5l-70 193q96 53 196.5 80t196.5 27q141 0 244 -55.5t159.5 -158t56.5 -241.5v-565zM500 178q66 0 123.5 29.5t92 79.5t34.5 110v6q-44 34 -102.5 52.5
t-120.5 18.5q-94 0 -153 -41.5t-59 -108.5q0 -41 24 -74.5t66 -52.5t95 -19z" />
    <glyph glyph-name="Aogonek" unicode="&#x104;" horiz-adv-x="1550" 
d="M308 0h-277l604 1500h281l603 -1500h-79q-66 -30 -106 -81t-40 -101q0 -44 33 -75t93 -34l-18 -125q-107 0 -170.5 51t-63.5 129q0 71 50.5 134.5t136.5 101.5h-113l-137 350h-660zM532 581h486l-243 621z" />
    <glyph glyph-name="aogonek" unicode="&#x105;" horiz-adv-x="1110" 
d="M997 0h-37q-66 -30 -106.5 -81t-40.5 -101q0 -44 33.5 -75t93.5 -34l-18 -125q-107 0 -170.5 51t-63.5 129q0 71 50.5 134.5t135.5 101.5h-91l-14 123q-55 -68 -137 -105.5t-182 -37.5q-106 0 -189 41.5t-130.5 113.5t-47.5 164q0 97 51.5 170.5t141 115.5t204.5 42
q70 0 140.5 -16t130.5 -45v32q0 66 -36 114t-97 74.5t-137 26.5q-69 0 -138 -23.5t-129 -69.5l-70 193q96 53 196.5 80t196.5 27q141 0 244 -55.5t159.5 -158t56.5 -241.5v-565zM500 178q66 0 123.5 29.5t92 79.5t34.5 110v6q-44 34 -102.5 52.5t-120.5 18.5
q-94 0 -153 -41.5t-59 -108.5q0 -41 24 -74.5t66 -52.5t95 -19z" />
    <glyph glyph-name="Cacute" unicode="&#x106;" horiz-adv-x="1510" 
d="M908 1664h-175l146 336h226zM1423 190q-104 -104 -248 -162t-313 -58q-170 0 -313.5 58t-250 163.5t-165 248t-58.5 310.5q0 169 58.5 311t165 247.5t250 163.5t313.5 58q168 0 311.5 -58t247.5 -161l-184 -187q-69 82 -166.5 128t-212.5 46q-110 0 -203.5 -41t-163 -115
t-108 -174t-38.5 -218t38.5 -217.5t108 -174t163 -115.5t203.5 -41q115 0 212 46t166 128z" />
    <glyph glyph-name="cacute" unicode="&#x107;" horiz-adv-x="1062" 
d="M643 1164h-176l147 336h226zM1001 154q-73 -83 -177 -128.5t-227 -45.5q-152 0 -272.5 68t-190 185.5t-69.5 266.5t69.5 266.5t190 185.5t272.5 68q122 0 225.5 -45t176.5 -127l-144 -153q-45 49 -108.5 76t-134.5 27q-86 0 -152.5 -38t-104 -105t-37.5 -154t37.5 -154.5
t104 -106t152.5 -38.5q71 0 135 27.5t108 75.5z" />
    <glyph glyph-name="Ccircumflex" unicode="&#x108;" horiz-adv-x="1510" 
d="M1169 1664h-182l-138 234l-139 -234h-181l218 336h204zM1423 190q-104 -104 -248 -162t-313 -58q-170 0 -313.5 58t-250 163.5t-165 248t-58.5 310.5q0 169 58.5 311t165 247.5t250 163.5t313.5 58q168 0 311.5 -58t247.5 -161l-184 -187q-69 82 -166.5 128t-212.5 46
q-110 0 -203.5 -41t-163 -115t-108 -174t-38.5 -218t38.5 -217.5t108 -174t163 -115.5t203.5 -41q115 0 212 46t166 128z" />
    <glyph glyph-name="ccircumflex" unicode="&#x109;" horiz-adv-x="1062" 
d="M894 1164h-182l-139 234l-138 -234h-181l218 336h204zM1001 154q-73 -83 -177 -128.5t-227 -45.5q-152 0 -272.5 68t-190 185.5t-69.5 266.5t69.5 266.5t190 185.5t272.5 68q122 0 225.5 -45t176.5 -127l-144 -153q-45 49 -108.5 76t-134.5 27q-86 0 -152.5 -38
t-104 -105t-37.5 -154t37.5 -154.5t104 -106t152.5 -38.5q71 0 135 27.5t108 75.5z" />
    <glyph glyph-name="Cdotaccent" unicode="&#x10a;" horiz-adv-x="1509" 
d="M1422 190q-104 -104 -247.5 -162t-313.5 -58q-169 0 -313 58t-250 163.5t-164.5 248t-58.5 310.5q0 169 58.5 311t164.5 247.5t250 163.5t313 58t312 -58t247 -161l-184 -187q-69 82 -166 128t-213 46q-110 0 -203.5 -41t-162.5 -115t-107.5 -174t-38.5 -218t38.5 -217.5
t107.5 -174t162.5 -115.5t203.5 -41q116 0 213 46t166 128zM828 1714q-49 0 -79.5 30t-30.5 80q0 49 30.5 79.5t79.5 30.5t79.5 -30.5t30.5 -79.5q0 -50 -30.5 -80t-79.5 -30z" />
    <glyph glyph-name="cdotaccent" unicode="&#x10b;" horiz-adv-x="1062" 
d="M1001 154q-73 -83 -177 -128.5t-227 -45.5q-152 0 -272.5 68t-190 185.5t-69.5 266.5t69.5 266.5t190 185.5t272.5 68q122 0 225.5 -45t176.5 -127l-144 -153q-45 49 -108.5 76t-134.5 27q-86 0 -152.5 -38t-104 -105t-37.5 -154t37.5 -154.5t104 -106t152.5 -38.5
q71 0 135 27.5t108 75.5zM606 1214q-49 0 -79.5 30t-30.5 80q0 49 30.5 79.5t79.5 30.5t79.5 -30.5t30.5 -79.5q0 -50 -30.5 -80t-79.5 -30z" />
    <glyph glyph-name="Ccaron" unicode="&#x10c;" horiz-adv-x="1510" 
d="M951 1664h-204l-217 336h181l138 -234l139 234h180zM1423 190q-104 -104 -248 -162t-313 -58q-170 0 -313.5 58t-250 163.5t-165 248t-58.5 310.5q0 169 58.5 311t165 247.5t250 163.5t313.5 58q168 0 311.5 -58t247.5 -161l-184 -187q-69 82 -166.5 128t-212.5 46
q-110 0 -203.5 -41t-163 -115t-108 -174t-38.5 -218t38.5 -217.5t108 -174t163 -115.5t203.5 -41q115 0 212 46t166 128z" />
    <glyph glyph-name="ccaron" unicode="&#x10d;" horiz-adv-x="1062" 
d="M706 1164h-204l-217 336h182l138 -234l137 234h182zM1001 154q-73 -83 -177 -128.5t-227 -45.5q-152 0 -272.5 68t-190 185.5t-69.5 266.5t69.5 266.5t190 185.5t272.5 68q122 0 225.5 -45t176.5 -127l-144 -153q-45 49 -108.5 76t-134.5 27q-86 0 -152.5 -38t-104 -105
t-37.5 -154t37.5 -154.5t104 -106t152.5 -38.5q71 0 135 27.5t108 75.5z" />
    <glyph glyph-name="Dcaron" unicode="&#x10e;" horiz-adv-x="1567" 
d="M816 1664h-205l-217 336h182l138 -234l138 234h181zM133 0v1500h472q273 0 472 -91t307 -259.5t108 -399.5q0 -230 -108 -399t-307 -260t-472 -91h-472zM397 232h218q194 0 329.5 60.5t206.5 176.5t71 281t-71 281t-206.5 176.5t-329.5 60.5h-218v-1036z" />
    <glyph glyph-name="dcaron" unicode="&#x10f;" horiz-adv-x="1707" 
d="M1486 1070h-140l101 450h172zM1145 0h-217l-13 140q-66 -75 -158.5 -117.5t-202.5 -42.5q-140 0 -251 68t-174.5 185.5t-63.5 266.5t63.5 266.5t174.5 185.5t251 68q103 0 191.5 -37t153.5 -104v621h246v-1500zM608 201q81 0 146.5 36.5t104.5 100.5t39 146v35
q0 81 -39 144.5t-104.5 100t-146.5 36.5q-83 0 -149 -39.5t-104 -107t-38 -152.5q0 -86 38 -154t104 -107t149 -39z" />
    <glyph glyph-name="Dcroat" unicode="&#x110;" horiz-adv-x="1631" 
d="M198 0v651h-179v189h179v660h471q273 0 472 -91t307 -259.5t108 -399.5q0 -230 -108 -399t-307 -260t-472 -91h-471zM819 651h-357v-419h217q194 0 329.5 60.5t206.5 176.5t71 281t-71 281t-206.5 176.5t-329.5 60.5h-217v-428h357v-189z" />
    <glyph glyph-name="dcroat" unicode="&#x111;" horiz-adv-x="1278" 
d="M1145 0h-217l-13 140q-66 -75 -158.5 -117.5t-202.5 -42.5q-140 0 -251 68t-174.5 185.5t-63.5 266.5t63.5 266.5t174.5 185.5t251 68q103 0 191.5 -37t153.5 -104v290h-319v142h319v189h246v-189h104v-142h-104v-1169zM608 201q81 0 146.5 36.5t104.5 100.5t39 146v35
q0 81 -39 144.5t-104.5 100t-146.5 36.5q-83 0 -149 -39.5t-104 -107t-38 -152.5q0 -86 38 -154t104 -107t149 -39z" />
    <glyph glyph-name="Emacron" unicode="&#x112;" horiz-adv-x="1221" 
d="M949 1765h-669v142h669v-142zM133 0v1500h951v-232h-687v-395h647v-231h-647v-410h697v-232h-961z" />
    <glyph glyph-name="emacron" unicode="&#x113;" horiz-adv-x="1165" 
d="M1040 116q-187 -136 -409 -136q-161 0 -289 70t-202.5 191t-74.5 274q0 145 67.5 259t185 180t265.5 66q154 0 270.5 -72.5t181.5 -201t65 -298.5v-32h-770q18 -68 63.5 -120t113.5 -81t153 -29q160 0 296 104zM320 560h552q-8 75 -45.5 131t-97 87.5t-133.5 31.5
q-75 0 -134 -32t-96 -88.5t-46 -129.5zM917 1265h-669v142h669v-142z" />
    <glyph glyph-name="Ebreve" unicode="&#x114;" horiz-adv-x="1221" 
d="M929 2000q0 -94 -40 -166.5t-111.5 -113.5t-163.5 -41t-163.5 41t-111.5 113.5t-40 166.5h142q0 -90 48 -145t126 -55t125 55t47 145h142zM133 0v1500h951v-232h-687v-395h647v-231h-647v-410h697v-232h-961z" />
    <glyph glyph-name="ebreve" unicode="&#x115;" horiz-adv-x="1165" 
d="M1040 116q-187 -136 -409 -136q-161 0 -289 70t-202.5 191t-74.5 274q0 145 67.5 259t185 180t265.5 66q154 0 270.5 -72.5t181.5 -201t65 -298.5v-32h-770q18 -68 63.5 -120t113.5 -81t153 -29q160 0 296 104zM320 560h552q-8 75 -45.5 131t-97 87.5t-133.5 31.5
q-75 0 -134 -32t-96 -88.5t-46 -129.5zM898 1500q0 -94 -40 -166.5t-111.5 -113.5t-163.5 -41t-163 41t-111.5 113.5t-40.5 166.5h141q0 -90 48 -145t126 -55t125.5 55t47.5 145h142z" />
    <glyph glyph-name="Edotaccent" unicode="&#x116;" horiz-adv-x="1217" 
d="M133 0v1500h951v-232h-687v-395h647v-231h-647v-410h697v-232h-961zM609 1714q-49 0 -79.5 30t-30.5 80q0 49 30.5 79.5t79.5 30.5t79.5 -30.5t30.5 -79.5q0 -50 -30.5 -80t-79.5 -30z" />
    <glyph glyph-name="edotaccent" unicode="&#x117;" horiz-adv-x="1165" 
d="M1040 116q-187 -136 -409 -136q-161 0 -289 70t-202.5 191t-74.5 274q0 145 67.5 259t185 180t265.5 66q154 0 270.5 -72.5t181.5 -201t65 -298.5v-32h-770q18 -68 63.5 -120t113.5 -81t153 -29q160 0 296 104zM320 560h552q-8 75 -45.5 131t-97 87.5t-133.5 31.5
q-75 0 -134 -32t-96 -88.5t-46 -129.5zM603 1214q-49 0 -79.5 30t-30.5 80q0 49 30.5 79.5t79.5 30.5t79.5 -30.5t30.5 -79.5q0 -50 -30.5 -80t-79.5 -30z" />
    <glyph glyph-name="Eogonek" unicode="&#x118;" horiz-adv-x="1217" 
d="M133 0v1500h951v-232h-687v-395h647v-231h-647v-410h697v-232h-30q-66 -30 -106 -81t-40 -101q0 -44 33 -75t93 -34l-18 -125q-107 0 -170 51t-63 129q0 71 50 134.5t136 101.5h-846z" />
    <glyph glyph-name="eogonek" unicode="&#x119;" horiz-adv-x="1165" 
d="M1040 116q-54 -39 -112.5 -65t-118.5 -47q-72 -25 -113.5 -79.5t-41.5 -106.5q0 -44 33 -75t93 -34l-17 -125q-108 0 -171 51t-63 129q0 64 40 121.5t110 96.5q-25 -2 -49 -2q-160 0 -288.5 70t-202.5 191t-74 274q0 145 67.5 259t184.5 180t265 66q154 0 270.5 -72.5
t182 -201t65.5 -298.5v-32h-770q18 -68 63.5 -120t112.5 -81t152 -29q162 0 298 104zM320 560h552q-8 75 -45.5 131t-97 87.5t-133.5 31.5q-75 0 -134 -32t-96 -88.5t-46 -129.5z" />
    <glyph glyph-name="Ecaron" unicode="&#x11a;" horiz-adv-x="1217" 
d="M732 1664h-204l-218 336h182l138 -234l137 234h182zM133 0v1500h951v-232h-687v-395h647v-231h-647v-410h697v-232h-961z" />
    <glyph glyph-name="ecaron" unicode="&#x11b;" horiz-adv-x="1165" 
d="M1040 116q-187 -136 -409 -136q-161 0 -289 70t-202.5 191t-74.5 274q0 145 67.5 259t185 180t265.5 66q154 0 270.5 -72.5t181.5 -201t65 -298.5v-32h-770q18 -68 63.5 -120t113.5 -81t153 -29q160 0 296 104zM320 560h552q-8 75 -45.5 131t-97 87.5t-133.5 31.5
q-75 0 -134 -32t-96 -88.5t-46 -129.5zM685 1164h-204l-218 336h182l137 -234l139 234h181z" />
    <glyph glyph-name="Gcircumflex" unicode="&#x11c;" horiz-adv-x="1653" 
d="M1166 1664h-182l-138 234l-138 -234h-182l218 336h205zM1234 1151q-71 71 -169.5 109t-209.5 38q-113 0 -206.5 -39t-161.5 -111.5t-105 -172t-37 -220.5q0 -122 37.5 -223.5t106 -175.5t162.5 -114t207 -40q98 0 180 30.5t144.5 88t102.5 138.5t53 180h-474v204h707
l7 -100q0 -171 -52.5 -312.5t-149.5 -245t-230 -159.5t-294 -56q-166 0 -307.5 59t-247 164.5t-164 247.5t-58.5 309q0 166 58.5 308.5t163 248.5t246 164.5t306.5 58.5q157 0 300.5 -54t256.5 -155z" />
    <glyph glyph-name="gcircumflex" unicode="&#x11d;" horiz-adv-x="1256" 
d="M954 1164h-182l-139 234l-137 -234h-182l218 336h204zM548 -8q-139 0 -248 67t-172 183.5t-63 263.5q0 148 63 264t172 183t248 67q109 0 201 -42t156 -117l12 139h216v-973q0 -166 -70.5 -289t-198.5 -190.5t-303 -67.5q-243 0 -435 155l101 201q134 -135 318 -135
q104 0 180.5 41.5t119 117t42.5 176.5v96q-64 -66 -151 -103t-188 -37zM602 211q79 0 143.5 35.5t103 97.5t38.5 141v44q0 79 -38.5 140t-103.5 96.5t-143 35.5q-82 0 -147 -38.5t-102.5 -105.5t-37.5 -151t37.5 -151t102.5 -105.5t147 -38.5z" />
    <glyph glyph-name="Gbreve" unicode="&#x11e;" horiz-adv-x="1653" 
d="M1151 2000q0 -94 -40 -166.5t-111 -113.5t-164 -41q-92 0 -163 41t-111.5 113.5t-40.5 166.5h142q0 -90 48 -145t126 -55t125.5 55t47.5 145h141zM1234 1151q-71 71 -169.5 109t-209.5 38q-113 0 -206.5 -39t-161.5 -111.5t-105 -172t-37 -220.5q0 -122 37.5 -223.5
t106 -175.5t162.5 -114t207 -40q98 0 180 30.5t144.5 88t102.5 138.5t53 180h-474v204h707l7 -100q0 -171 -52.5 -312.5t-149.5 -245t-230 -159.5t-294 -56q-166 0 -307.5 59t-247 164.5t-164 247.5t-58.5 309q0 166 58.5 308.5t163 248.5t246 164.5t306.5 58.5
q157 0 300.5 -54t256.5 -155z" />
    <glyph glyph-name="gbreve" unicode="&#x11f;" horiz-adv-x="1256" 
d="M949 1500q0 -94 -40.5 -166.5t-111 -113.5t-163.5 -41q-92 0 -163.5 41t-111.5 113.5t-40 166.5h142q0 -90 48 -145t126 -55t125 55t47 145h142zM548 -8q-139 0 -248 67t-172 183.5t-63 263.5q0 148 63 264t172 183t248 67q109 0 201 -42t156 -117l12 139h216v-973
q0 -166 -70.5 -289t-198.5 -190.5t-303 -67.5q-243 0 -435 155l101 201q134 -135 318 -135q104 0 180.5 41.5t119 117t42.5 176.5v96q-64 -66 -151 -103t-188 -37zM602 211q79 0 143.5 35.5t103 97.5t38.5 141v44q0 79 -38.5 140t-103.5 96.5t-143 35.5q-82 0 -147 -38.5
t-102.5 -105.5t-37.5 -151t37.5 -151t102.5 -105.5t147 -38.5z" />
    <glyph glyph-name="Gdotaccent" unicode="&#x120;" horiz-adv-x="1653" 
d="M1234 1151q-71 71 -169.5 109t-209.5 38q-113 0 -206.5 -39t-161.5 -111.5t-105 -172t-37 -220.5q0 -122 37.5 -223.5t106 -175.5t162.5 -114t207 -40q98 0 180 30.5t144.5 88t102.5 138.5t53 180h-474v204h707l7 -100q0 -171 -52.5 -312.5t-149.5 -245t-230 -159.5
t-294 -56q-166 0 -307.5 59t-247 164.5t-164 247.5t-58.5 309q0 166 58.5 308.5t163 248.5t246 164.5t306.5 58.5q157 0 300.5 -54t256.5 -155zM846 1714q-49 0 -79.5 30t-30.5 80q0 49 30.5 79.5t79.5 30.5t79.5 -30.5t30.5 -79.5q0 -50 -30.5 -80t-79.5 -30z" />
    <glyph glyph-name="gdotaccent" unicode="&#x121;" horiz-adv-x="1256" 
d="M548 -8q-139 0 -248 67t-172 183.5t-63 263.5q0 148 63 264t172 183t248 67q109 0 201 -42t156 -117l12 139h216v-973q0 -166 -70.5 -289t-198.5 -190.5t-303 -67.5q-243 0 -435 155l101 201q134 -135 318 -135q104 0 180.5 41.5t119 117t42.5 176.5v96
q-64 -66 -151 -103t-188 -37zM602 211q79 0 143.5 35.5t103 97.5t38.5 141v44q0 79 -38.5 140t-103.5 96.5t-143 35.5q-82 0 -147 -38.5t-102.5 -105.5t-37.5 -151t37.5 -151t102.5 -105.5t147 -38.5zM625 1214q-49 0 -79.5 30t-30.5 80q0 49 30.5 79.5t79.5 30.5
t79.5 -30.5t30.5 -79.5q0 -50 -30.5 -80t-79.5 -30z" />
    <glyph glyph-name="Gcommaaccent" unicode="&#x122;" horiz-adv-x="1653" 
d="M1234 1151q-71 71 -169.5 109t-209.5 38q-113 0 -206.5 -39t-161.5 -111.5t-105 -172t-37 -220.5q0 -122 37.5 -223.5t106 -175.5t162.5 -114t207 -40q98 0 180 30.5t144.5 88t102.5 138.5t53 180h-474v204h707l7 -100q0 -171 -52.5 -312.5t-149.5 -245t-230 -159.5
t-294 -56q-166 0 -307.5 59t-247 164.5t-164 247.5t-58.5 309q0 166 58.5 308.5t163 248.5t246 164.5t306.5 58.5q157 0 300.5 -54t256.5 -155zM777 -505l-82 75q49 37 74.5 93.5t25.5 117.5q0 76 -37 134l175 37q24 -66 24 -138q0 -103 -48.5 -189.5t-131.5 -129.5z" />
    <glyph glyph-name="gcommaaccent" unicode="&#x123;" horiz-adv-x="1256" 
d="M672 1170h-177l132 450h146zM548 -8q-139 0 -248 67t-172 183.5t-63 263.5q0 148 63 264t172 183t248 67q109 0 201 -42t156 -117l12 139h216v-973q0 -166 -70.5 -289t-198.5 -190.5t-303 -67.5q-243 0 -435 155l101 201q134 -135 318 -135q104 0 180.5 41.5t119 117
t42.5 176.5v96q-64 -66 -151 -103t-188 -37zM602 211q79 0 143.5 35.5t103 97.5t38.5 141v44q0 79 -38.5 140t-103.5 96.5t-143 35.5q-82 0 -147 -38.5t-102.5 -105.5t-37.5 -151t37.5 -151t102.5 -105.5t147 -38.5z" />
    <glyph glyph-name="Hcircumflex" unicode="&#x124;" horiz-adv-x="1505" 
d="M1074 1664h-182l-139 234l-138 -234h-181l218 336h204zM397 0h-264v1500h264v-645h711v645h264v-1500h-264v623h-711v-623z" />
    <glyph glyph-name="hcircumflex" unicode="&#x125;" horiz-adv-x="1224" 
d="M575 1664h-182l-138 234l-139 -234h-181l218 336h205zM134 0v1500h246v-628q109 148 323 148q192 0 300 -117.5t108 -326.5v-576h-246v513q0 136 -63 211.5t-177 75.5q-115 0 -180 -76.5t-65 -210.5v-513h-246z" />
    <glyph glyph-name="Hbar" unicode="&#x126;" horiz-adv-x="1546" 
d="M1533 1106h-141v-1106h-264v623h-711v-623h-264v1106h-140v143h140v251h264v-251h711v251h264v-251h141v-143zM417 855h711v251h-711v-251z" />
    <glyph glyph-name="hbar" unicode="&#x127;" horiz-adv-x="1243" 
d="M700 1164h-301v-292q110 148 323 148q192 0 300 -117t108 -327v-576h-246v513q0 136 -63 211.5t-176 75.5q-115 0 -180.5 -76.5t-65.5 -210.5v-513h-246v1164h-140v142h140v194h246v-194h301v-142z" />
    <glyph glyph-name="Itilde" unicode="&#x128;" horiz-adv-x="531" 
d="M627 1961h-95q-13 -115 -108 -115q-37 0 -66 16t-59 38q-36 25 -79 47.5t-108 22.5q-197 0 -208 -240h96q13 116 115 116q39 0 69 -17t59 -39q39 -28 79 -49t99 -21q96 0 148.5 62t57.5 179zM397 1500h-264v-1500h264v1500z" />
    <glyph glyph-name="itilde" unicode="&#x129;" horiz-adv-x="513" 
d="M618 1461q-5 -117 -57.5 -179t-148.5 -62q-59 0 -99 21t-78 49q-30 22 -59.5 39t-69.5 17q-102 0 -115 -116h-95q10 240 207 240q65 0 108 -22.5t79 -47.5q30 -22 59 -38t66 -16q95 0 108 115h95zM380 0h-247v1000h247v-1000z" />
    <glyph glyph-name="Imacron" unicode="&#x12a;" horiz-adv-x="531" 
d="M600 1765v142h-669v-142h669zM398 1500h-264v-1500h264v1500z" />
    <glyph glyph-name="imacron" unicode="&#x12b;" horiz-adv-x="513" 
d="M591 1265h-669v142h669v-142zM380 0h-247v1000h247v-1000z" />
    <glyph glyph-name="Iogonek" unicode="&#x12e;" horiz-adv-x="531" 
d="M398 1500h-264v-1500h148q-86 -38 -136 -101.5t-50 -134.5q0 -78 63 -129t170 -51l19 125q-60 3 -93.5 34t-33.5 75q0 50 40 101t106 81h31v1500z" />
    <glyph glyph-name="iogonek" unicode="&#x12f;" horiz-adv-x="517" 
d="M258 1265q-52 0 -87.5 36.5t-35.5 88.5q0 51 35.5 87.5t87.5 36.5q53 0 89 -36.5t36 -87.5q0 -52 -36 -88.5t-89 -36.5zM381 0h-33q-66 -30 -106.5 -80.5t-40.5 -101.5q0 -44 33.5 -75t93.5 -34l-18 -125q-107 0 -170 51t-63 129q0 72 50 135t135 101h-127v1000h246
v-1000z" />
    <glyph glyph-name="Idotaccent" unicode="&#x130;" horiz-adv-x="530" 
d="M397 1500h-264v-1500h264v1500zM265 1714q-49 0 -79.5 30t-30.5 80q0 49 30.5 79.5t79.5 30.5t79.5 -30.5t30.5 -79.5q0 -50 -30.5 -80t-79.5 -30z" />
    <glyph glyph-name="dotlessi" unicode="&#x131;" horiz-adv-x="513" 
d="M380 0h-247v1000h247v-1000z" />
    <glyph glyph-name="IJ" unicode="&#x132;" horiz-adv-x="1109" 
d="M397 1500h-264v-1500h264v1500zM374 -374q213 0 346 59t194.5 186t61.5 331v1298h-264v-1303q0 -170 -86.5 -255t-263.5 -85z" />
    <glyph glyph-name="ij" unicode="&#x133;" horiz-adv-x="1037" 
d="M258 1265q-52 0 -87.5 36.5t-35.5 88.5q0 51 35.5 87.5t87.5 36.5q53 0 89 -36.5t36 -87.5q0 -52 -36 -88.5t-89 -36.5zM381 0h-246v1000h246v-1000zM784 1265q-52 0 -87.5 36t-35.5 88t35.5 88.5t87.5 36.5q53 0 89 -36.5t36 -88.5t-36 -88t-89 -36zM382 -504v195
q16 -3 30.5 -4t26.5 -1q103 0 162.5 68t59.5 187v1059h247v-1069q0 -220 -97.5 -335.5t-282.5 -115.5q-33 0 -70 4.5t-76 11.5z" />
    <glyph glyph-name="Jcircumflex" unicode="&#x134;" horiz-adv-x="531" 
d="M585 1664h-182l-139 234l-138 -234h-181l217 336h205zM-204 -374l-13 231q177 0 264 85t87 255v1303h264v-1298q0 -204 -61.5 -331t-194.5 -186t-346 -59z" />
    <glyph glyph-name="jcircumflex" unicode="&#x135;" horiz-adv-x="489" 
d="M548 1164h-182l-138 234l-139 -234h-181l218 336h204zM-170 -504v195q16 -3 30.5 -4t28.5 -1q101 0 160.5 68t59.5 187v1059h247v-1069q0 -220 -97.5 -335.5t-282.5 -115.5q-33 0 -70 4.5t-76 11.5z" />
    <glyph glyph-name="Kcommaaccent" unicode="&#x136;" horiz-adv-x="1447" 
d="M397 0h-264v1500h264v-793q40 59 77.5 110.5t64.5 85.5l475 597h312l-549 -690l657 -810h-342l-484 597l-211 -265v-332zM634 -505l-82 75q49 37 75 93.5t26 117.5q0 75 -38 134l175 37q24 -66 24 -138q0 -103 -48.5 -189.5t-131.5 -129.5z" />
    <glyph glyph-name="uni0137" unicode="&#x137;" horiz-adv-x="1200" 
d="M379 0h-246v1500h246v-967l91 111l337 356h309l-418 -442l471 -558h-318l-323 399l-149 -147v-252zM505 -505l-82 75q48 37 74 93.5t26 117.5q0 76 -37 134l175 37q24 -66 24 -138q0 -103 -48.5 -189.5t-131.5 -129.5z" />
    <glyph glyph-name="kgreenlandic" unicode="&#x138;" horiz-adv-x="1200" 
d="M379 0h-246v1000h246v-467l91 111l337 356h309l-418 -442l471 -558h-317l-324 399l-149 -147v-252z" />
    <glyph glyph-name="Lacute" unicode="&#x139;" horiz-adv-x="1146" 
d="M353 1664h-175l146 336h226zM1093 0h-960v1500h264v-1268h696v-232z" />
    <glyph glyph-name="lacute" unicode="&#x13a;" horiz-adv-x="529" 
d="M347 1664h-175l147 336h225zM395 0h-262v1540h262v-1540z" />
    <glyph glyph-name="uni013B" unicode="&#x13b;" horiz-adv-x="1146" 
d="M1093 0h-960v1500h264v-1268h696v-232zM563 -505l-81 75q48 37 73.5 93.5t25.5 117.5q0 76 -37 134l175 37q24 -66 24 -138q0 -103 -48.5 -189.5t-131.5 -129.5z" />
    <glyph glyph-name="uni013C" unicode="&#x13c;" horiz-adv-x="528" 
d="M395 0h-262v1540h262v-1540zM215 -505l-81 75q48 37 73.5 93.5t25.5 117.5q0 76 -37 134l175 37q24 -66 24 -138q0 -103 -48.5 -189.5t-131.5 -129.5z" />
    <glyph glyph-name="Lcaron" unicode="&#x13d;" horiz-adv-x="1146" 
d="M843 1050h-141l101 450h173zM1093 0h-960v1500h264v-1268h696v-232z" />
    <glyph glyph-name="lcaron" unicode="&#x13e;" horiz-adv-x="863" 
d="M396 0h-263v1540h263v-1540zM717 1058h-140l101 450h172z" />
    <glyph glyph-name="Ldot" unicode="&#x13f;" horiz-adv-x="1146" 
d="M1093 0h-960v1500h264v-1268h696v-232zM775 640q-49 0 -79.5 30.5t-30.5 79.5t30.5 79.5t79.5 30.5t79.5 -30.5t30.5 -79.5t-30.5 -79.5t-79.5 -30.5z" />
    <glyph glyph-name="ldot" unicode="&#x140;" horiz-adv-x="819" 
d="M395 0h-262v1540h262v-1540zM690 660q-50 0 -80 30.5t-30 79.5t30 79.5t80 30.5q49 0 79.5 -30.5t30.5 -79.5t-30.5 -79.5t-79.5 -30.5z" />
    <glyph glyph-name="Lslash" unicode="&#x141;" horiz-adv-x="1146" 
d="M-50 470l-70 125l253 146v759h264v-607l237 137l71 -125l-308 -177v-496h696v-232h-960v575z" />
    <glyph glyph-name="lslash" unicode="&#x142;" horiz-adv-x="490" 
d="M-97 490l-71 125l283 163v762h262v-610l210 120l71 -125l-281 -161v-764h-262v612z" />
    <glyph glyph-name="Nacute" unicode="&#x143;" horiz-adv-x="1610" 
d="M902 1664h-175l146 336h226zM1477 0h-299l-781 1091v-1091h-264v1500h297l783 -1092v1092h264v-1500z" />
    <glyph glyph-name="nacute" unicode="&#x144;" 
d="M675 1164h-176l146 336h226zM1110 0h-246v528q0 125 -64 197.5t-173 72.5q-112 0 -180 -76.5t-68 -205.5v-516h-246v1000h203l8 -161q54 88 142.5 134.5t207.5 46.5q194 0 305 -118t111 -326v-576z" />
    <glyph glyph-name="uni0145" unicode="&#x145;" horiz-adv-x="1607" 
d="M1468 0h-298l-782 1091v-1091h-264v1500h297l783 -1092v1092h264v-1500zM754 -505l-81 75q48 37 73.5 93.5t25.5 117.5q0 76 -37 134l175 37q24 -68 24 -138q0 -103 -48.5 -189.5t-131.5 -129.5z" />
    <glyph glyph-name="ncommaaccent" unicode="&#x146;" 
d="M1110 0h-246v528q0 125 -64 197.5t-173 72.5q-112 0 -180 -76.5t-68 -205.5v-516h-246v1000h203l8 -161q54 88 142.5 134.5t207.5 46.5q194 0 305 -118t111 -326v-576zM562 -505l-82 75q48 37 74 93.5t26 117.5q0 76 -37 134l175 37q24 -68 24 -138q0 -103 -48.5 -189.5
t-131.5 -129.5z" />
    <glyph glyph-name="Ncaron" unicode="&#x147;" horiz-adv-x="1610" 
d="M915 1664h-204l-218 336h182l139 -234l137 234h182zM1477 0h-299l-781 1091v-1091h-264v1500h297l783 -1092v1092h264v-1500z" />
    <glyph glyph-name="ncaron" unicode="&#x148;" 
d="M733 1164h-204l-218 336h182l138 -234l138 234h182zM1110 0h-246v528q0 125 -64 197.5t-173 72.5q-112 0 -180 -76.5t-68 -205.5v-516h-246v1000h203l8 -161q54 88 142.5 134.5t207.5 46.5q194 0 305 -118t111 -326v-576z" />
    <glyph glyph-name="napostrophe" unicode="&#x149;" horiz-adv-x="1224" 
d="M215 1071l-82 75q48 37 74 93.5t26 117.5q0 76 -37 134l175 37q24 -66 24 -138q0 -103 -48.5 -189.5t-131.5 -129.5zM1111 0h-246v528q0 125 -64 197.5t-173 72.5q-113 0 -181 -76.5t-68 -205.5v-516h-246v1000h203l8 -161q55 88 143 134.5t207 46.5q194 0 305.5 -118
t111.5 -326v-576z" />
    <glyph glyph-name="Eng" unicode="&#x14a;" horiz-adv-x="1610" 
d="M875 -360l-13 231q132 -3 219 47.5t113 145.5q-32 34 -80.5 90t-101.5 120.5t-101 124.5t-79 102l-339 456l-94 144l-7 -2l5 -177v-922h-264v1500h271l530 -712q29 -38 69.5 -94.5t82.5 -117t76 -111.5t51 -77l7 1l-7 201v910h264v-1285q0 -203 -62 -330t-194.5 -186
t-345.5 -59z" />
    <glyph glyph-name="eng" unicode="&#x14b;" 
d="M584 -504v195q16 -3 30.5 -4t28.5 -1q101 0 161 68t60 187v598q0 121 -60.5 190t-167.5 69q-75 0 -133 -34.5t-91 -98.5t-33 -149v-516h-246v1000h203l8 -161q54 88 147 134.5t212 46.5q189 0 298 -115t109 -315v-659q0 -220 -97.5 -335.5t-282.5 -115.5q-33 0 -69.5 4.5
t-76.5 11.5z" />
    <glyph glyph-name="Omacron" unicode="&#x14c;" horiz-adv-x="1721" 
d="M1195 1765h-669v142h669v-142zM862 -30q-170 0 -314 58t-250 163.5t-164.5 248t-58.5 310.5q0 169 58.5 311t164.5 247.5t250 163.5t314 58t313.5 -58t249 -163.5t163.5 -247.5t58 -311q0 -168 -58 -310.5t-163.5 -248t-249 -163.5t-313.5 -58zM861 202q111 0 205 41
t163.5 115.5t108 174.5t38.5 217t-38.5 217t-108 174.5t-163.5 115.5t-205 41q-110 0 -204.5 -41t-164 -115.5t-108.5 -174.5t-39 -217t39 -217t108.5 -174.5t164 -115.5t204.5 -41z" />
    <glyph glyph-name="omacron" unicode="&#x14d;" horiz-adv-x="1192" 
d="M931 1265h-669v142h669v-142zM597 -20q-152 0 -272.5 68t-190 185.5t-69.5 266.5t69.5 266.5t190 185.5t272.5 68q153 0 273 -68t188.5 -185.5t68.5 -266.5t-68.5 -266.5t-188.5 -185.5t-273 -68zM596 201q80 0 143 39t99.5 107t36.5 154t-36.5 153t-99.5 106.5
t-143 39.5q-79 0 -142.5 -39.5t-100 -106.5t-36.5 -153t36.5 -154t100 -107t142.5 -39z" />
    <glyph glyph-name="Obreve" unicode="&#x14e;" horiz-adv-x="1721" 
d="M1175 2000q0 -94 -40 -166.5t-111.5 -113.5t-163.5 -41q-93 0 -163.5 41t-111 113.5t-40.5 166.5h142q0 -90 47.5 -145t125.5 -55t126 55t48 145h141zM861 -30q-170 0 -313.5 58t-249.5 163.5t-164.5 248t-58.5 310.5q0 169 58.5 311t164.5 247.5t249.5 163.5t314.5 58
q170 0 313 -58t249 -163.5t164 -247.5t58 -311q0 -168 -58 -310.5t-164 -248t-249 -163.5t-314 -58zM861 202q110 0 204.5 41t164 115.5t108 174.5t38.5 217t-38.5 217t-108 174.5t-163.5 115.5t-205 41t-205 -41t-164 -115.5t-108.5 -174.5t-38.5 -217t38.5 -217
t108.5 -174.5t164 -115.5t205 -41z" />
    <glyph glyph-name="obreve" unicode="&#x14f;" horiz-adv-x="1192" 
d="M911 1500q0 -94 -40 -166.5t-111 -113.5t-164 -41q-92 0 -163 41t-111.5 113.5t-40.5 166.5h142q0 -90 48 -145t126 -55t125.5 55t47.5 145h141zM597 -20q-152 0 -272.5 68t-190 185.5t-69.5 266.5t69.5 266.5t190 185.5t272.5 68q153 0 273 -68t188.5 -185.5
t68.5 -266.5t-68.5 -266.5t-188.5 -185.5t-273 -68zM596 201q80 0 143 39t99.5 107t36.5 154t-36.5 153t-99.5 106.5t-143 39.5q-79 0 -142.5 -39.5t-100 -106.5t-36.5 -153t36.5 -154t100 -107t142.5 -39z" />
    <glyph glyph-name="Ohungarumlaut" unicode="&#x150;" horiz-adv-x="1721" 
d="M738 1664h-176l146 336h226zM1132 1664h-175l146 336h226zM861 -30q-170 0 -313.5 58t-249.5 163.5t-164.5 248t-58.5 310.5q0 169 58.5 311t164.5 247.5t249.5 163.5t314.5 58q170 0 313 -58t249 -163.5t164 -247.5t58 -311q0 -168 -58 -310.5t-164 -248t-249 -163.5
t-314 -58zM861 202q110 0 204.5 41t164 115.5t108 174.5t38.5 217t-38.5 217t-108 174.5t-163.5 115.5t-205 41t-205 -41t-164 -115.5t-108.5 -174.5t-38.5 -217t38.5 -217t108.5 -174.5t164 -115.5t205 -41z" />
    <glyph glyph-name="ohungarumlaut" unicode="&#x151;" horiz-adv-x="1193" 
d="M474 1164h-175l146 336h226zM869 1164h-176l146 336h226zM597 -20q-152 0 -272.5 68t-190 185.5t-69.5 266.5t69.5 266.5t190 185.5t272.5 68q153 0 273 -68t189 -185.5t69 -266.5t-69 -266.5t-189 -185.5t-273 -68zM597 201q80 0 143 39t99.5 107t36.5 154t-36.5 153
t-99.5 106.5t-143 39.5t-143.5 -39.5t-100 -106.5t-36.5 -153t36.5 -154t100 -107t143.5 -39z" />
    <glyph glyph-name="OE" unicode="&#x152;" horiz-adv-x="2499" 
d="M821 -31q-162 0 -298 58.5t-236.5 164t-156 247.5t-55.5 310q0 169 55.5 311.5t156 247.5t236.5 163t298 58q126 0 237 -36.5t201.5 -104t154.5 -160.5v272h952v-232h-688v-395h647v-231h-647v-410h698v-232h-962v271q-64 -93 -154.5 -160.5t-201.5 -104.5t-237 -37z
M880 200q115 0 212.5 41.5t169.5 116t112 174.5t40 217q0 118 -40 218t-112 174.5t-169.5 115.5t-212.5 41t-212.5 -41t-170 -115.5t-112.5 -174.5t-40 -218q0 -117 40 -217t112.5 -174.5t170 -116t212.5 -41.5z" />
    <glyph glyph-name="oe" unicode="&#x153;" horiz-adv-x="2016" 
d="M1890 116q-186 -136 -408 -136q-154 0 -279.5 65.5t-199.5 177.5q-43 -74 -108 -128.5t-147 -84.5t-177 -30q-145 0 -259.5 68t-180.5 185.5t-66 266.5t66 266.5t180.5 185.5t259.5 68q92 0 172 -28t144 -79t108 -122q67 106 181.5 167.5t257.5 61.5q154 0 270.5 -71.5
t181.5 -199t65 -294.5v-32h-769q19 -69 65.5 -122t114.5 -82.5t150 -29.5q159 0 294 104zM602 201q82 0 146.5 39t101.5 107t37 154t-37 153t-101.5 106.5t-146.5 39.5q-81 0 -145.5 -39.5t-102 -106.5t-37.5 -153t37.5 -154t102 -107t145.5 -39zM1171 548h552
q-8 74 -45.5 130t-97 88t-134.5 32t-134 -31.5t-96 -88t-45 -130.5z" />
    <glyph glyph-name="Racute" unicode="&#x154;" horiz-adv-x="1356" 
d="M667 1664h-175l146 336h226zM1303 0h-293l-329 564h-284v-564h-264v1500h553q175 0 299 -56t191 -160.5t67 -251.5q0 -156 -77 -264.5t-218 -158.5zM397 780h270q145 0 225.5 64t80.5 180t-80 180t-226 64h-270v-488z" />
    <glyph glyph-name="racute" unicode="&#x155;" horiz-adv-x="837" 
d="M508 1164h-176l146 336h226zM379 0h-246v1000h214l9 -182q52 96 140.5 149t203.5 53q30 0 61.5 -4t62.5 -12l-30 -222q-62 18 -120 18q-88 0 -154.5 -41t-103.5 -113.5t-37 -168.5v-477z" />
    <glyph glyph-name="Rcommaaccent" unicode="&#x156;" horiz-adv-x="1356" 
d="M1303 0h-293l-329 564h-284v-564h-264v1500h553q175 0 299 -56t191 -160.5t67 -251.5q0 -156 -77 -264.5t-218 -158.5zM397 780h270q145 0 225.5 64t80.5 180t-80 180t-226 64h-270v-488zM628 -505l-82 75q49 37 75 93.5t26 117.5q0 76 -37 134l174 37q25 -68 25 -138
q0 -103 -49 -189.5t-132 -129.5z" />
    <glyph glyph-name="rcommaaccent" unicode="&#x157;" horiz-adv-x="838" 
d="M380 0h-246v1000h214l9 -182q51 96 140 149t204 53q30 0 61 -4t63 -12l-31 -222q-62 18 -119 18q-88 0 -155 -41t-103.5 -113.5t-36.5 -168.5v-477zM191 -505l-81 75q48 37 74 93.5t26 117.5q0 76 -37 134l174 37q25 -68 25 -138q0 -103 -49 -189.5t-132 -129.5z" />
    <glyph glyph-name="Rcaron" unicode="&#x158;" horiz-adv-x="1356" 
d="M739 1664h-203l-218 336h182l138 -234l138 234h181zM1303 0h-293l-329 564h-284v-564h-264v1500h553q175 0 299 -56t191 -160.5t67 -251.5q0 -156 -77 -264.5t-218 -158.5zM397 780h270q145 0 225.5 64t80.5 180t-80 180t-226 64h-270v-488z" />
    <glyph glyph-name="rcaron" unicode="&#x159;" horiz-adv-x="838" 
d="M521 1164h-204l-218 336h182l138 -234l138 234h182zM380 0h-246v1000h214l9 -182q52 96 140.5 149t203.5 53q30 0 61.5 -4t62.5 -12l-30 -222q-62 18 -120 18q-88 0 -154.5 -41t-103.5 -113.5t-37 -168.5v-477z" />
    <glyph glyph-name="Sacute" unicode="&#x15a;" horiz-adv-x="1218" 
d="M693 1664h-176l146 336h227zM63 156l125 202q69 -54 133 -89.5t129 -52.5t132 -17q86 0 149.5 26.5t98.5 73.5t35 110q0 71 -42.5 118.5t-111.5 82t-148 67.5q-72 30 -145.5 65t-133.5 83.5t-96.5 117.5t-36.5 167q0 127 64 221.5t177 146t258 51.5q102 0 209.5 -26.5
t212.5 -80.5l-105 -213q-71 42 -151 65.5t-153 23.5q-72 0 -126.5 -22.5t-85 -64t-30.5 -96.5q0 -65 40.5 -110t106.5 -79.5t141 -67.5t150.5 -70.5t138 -88.5t100 -122t37.5 -171q0 -130 -67.5 -228.5t-189.5 -153t-285 -54.5q-146 0 -280 47t-250 139z" />
    <glyph glyph-name="sacute" unicode="&#x15b;" horiz-adv-x="906" 
d="M543 1164h-176l146 336h227zM83 86l56 214q33 -33 82 -60t104.5 -42.5t108.5 -15.5q71 0 114 29.5t43 77.5q0 38 -25.5 63.5t-67.5 45t-92 37.5q-66 25 -134 58.5t-114 89t-46 147.5q0 89 45.5 154t127.5 100.5t191 35.5q172 0 343 -86l-71 -202q-32 24 -78 44t-94 32
t-87 12q-57 0 -91 -25t-34 -66q0 -28 19 -50.5t59 -43.5t103 -47q68 -26 136.5 -60.5t115 -91t46.5 -149.5q0 -92 -49.5 -161t-138 -107.5t-206.5 -38.5q-196 0 -366 106z" />
    <glyph glyph-name="Scircumflex" unicode="&#x15c;" horiz-adv-x="1218" 
d="M958 1664h-182l-138 234l-138 -234h-182l218 336h204zM63 156l125 202q69 -54 133 -89.5t129 -52.5t132 -17q86 0 149.5 26.5t98.5 73.5t35 110q0 71 -42.5 118.5t-111.5 82t-148 67.5q-72 30 -145.5 65t-133.5 83.5t-96.5 117.5t-36.5 167q0 127 64 221.5t177 146
t258 51.5q102 0 209.5 -26.5t212.5 -80.5l-105 -213q-71 42 -151 65.5t-153 23.5q-72 0 -126.5 -22.5t-85 -64t-30.5 -96.5q0 -65 41 -110t107.5 -79.5t143.5 -68.5q74 -32 148.5 -70t136.5 -88.5t99.5 -121.5t37.5 -171q0 -130 -67.5 -228.5t-189.5 -153t-285 -54.5
q-146 0 -280 47t-250 139z" />
    <glyph glyph-name="scircumflex" unicode="&#x15d;" horiz-adv-x="906" 
d="M803 1164h-182l-138 234l-138 -234h-182l217 336h206zM83 86l56 214q33 -33 82 -60t104.5 -42.5t108.5 -15.5q71 0 114 29.5t43 77.5q0 38 -25.5 63.5t-67.5 45t-92 37.5q-66 25 -134 58.5t-114 89t-46 147.5q0 89 45.5 154t127.5 100.5t191 35.5q172 0 343 -86l-71 -202
q-32 24 -78 44t-94 32t-87 12q-57 0 -91 -25t-34 -66q0 -28 19 -50.5t59 -43.5t103 -47q68 -26 136.5 -60.5t115 -91t46.5 -149.5q0 -92 -49.5 -161t-138 -107.5t-206.5 -38.5q-196 0 -366 106z" />
    <glyph glyph-name="Scedilla" unicode="&#x15e;" horiz-adv-x="1218" 
d="M63 156l125 202q69 -54 133 -89.5t129 -52.5t132 -17q86 0 149.5 26.5t98.5 73.5t35 110q0 71 -42.5 118.5t-111.5 82t-148 67.5q-72 30 -145.5 65t-133.5 83.5t-96.5 117.5t-36.5 167q0 127 64 221.5t177 146t258 51.5q102 0 209.5 -26.5t212.5 -80.5l-105 -213
q-71 42 -151 65.5t-153 23.5q-72 0 -126.5 -22.5t-85 -64t-30.5 -96.5q0 -65 40.5 -110t106.5 -79.5t141 -67.5t150.5 -70.5t138 -88.5t100 -122t37.5 -171q0 -123 -61 -217.5t-170.5 -151t-256.5 -66.5l-26 -58q74 -7 118.5 -49t44.5 -108q0 -77 -61 -127.5t-157 -50.5
q-70 0 -142 29l39 104q41 -19 85 -19q48 0 79.5 24t31.5 62t-34.5 63t-92.5 25h-10.5t-11.5 -1l42 106q-135 6 -258 53t-231 132z" />
    <glyph glyph-name="scedilla" unicode="&#x15f;" horiz-adv-x="906" 
d="M83 86l56 214q33 -33 82 -60t104.5 -42.5t108.5 -15.5q71 0 114 29.5t43 77.5q0 38 -25.5 63.5t-67.5 45t-92 37.5q-66 25 -134 58.5t-114 89t-46 147.5q0 89 45.5 154t127.5 100.5t191 35.5q172 0 343 -86l-71 -202q-32 24 -78 44t-94 32t-87 12q-57 0 -91 -25t-34 -66
q0 -28 19 -50.5t59 -43.5t103 -47q68 -26 136.5 -60.5t115 -91t46.5 -149.5q0 -85 -42.5 -151t-119 -105.5t-180.5 -48.5l-31 -69q74 -7 119 -49t45 -108q0 -77 -61.5 -127.5t-157.5 -50.5q-70 0 -142 29l39 104q41 -19 85 -19q48 0 80 24t32 62t-34.5 63t-92.5 25h-11
t-11 -1l45 116q-85 6 -167 33t-155 72z" />
    <glyph glyph-name="Scaron" unicode="&#x160;" horiz-adv-x="1218" 
d="M756 1664h-204l-218 336h182l138 -234l138 234h182zM63 156l125 202q69 -54 133 -89.5t129 -52.5t132 -17q86 0 149.5 26.5t98.5 73.5t35 110q0 71 -42.5 118.5t-111.5 82t-148 67.5q-72 30 -145.5 65t-133.5 83.5t-96.5 117.5t-36.5 167q0 127 64 221.5t177 146
t258 51.5q102 0 209.5 -26.5t212.5 -80.5l-105 -213q-71 42 -151 65.5t-153 23.5q-72 0 -126.5 -22.5t-85 -64t-30.5 -96.5q0 -65 40.5 -110t106.5 -79.5t141 -67.5t150.5 -70.5t138 -88.5t100 -122t37.5 -171q0 -130 -67.5 -228.5t-189.5 -153t-285 -54.5q-146 0 -280 47
t-250 139z" />
    <glyph glyph-name="scaron" unicode="&#x161;" horiz-adv-x="906" 
d="M585 1164h-204l-217 336h181l139 -234l138 234h181zM83 86l56 214q33 -33 82 -60t104.5 -42.5t108.5 -15.5q71 0 114 29.5t43 77.5q0 38 -25.5 63.5t-67.5 45t-92 37.5q-66 25 -134 58.5t-114 89t-46 147.5q0 89 45.5 154t127.5 100.5t191 35.5q172 0 343 -86l-71 -202
q-32 24 -78 44t-94 32t-87 12q-57 0 -91 -24.5t-34 -66.5q0 -28 20 -51t60.5 -44.5t104.5 -47.5q71 -27 138 -62.5t111.5 -91.5t44.5 -146q0 -91 -49.5 -160t-138 -107.5t-206.5 -38.5q-196 0 -366 106z" />
    <glyph glyph-name="Tcedilla" unicode="&#x162;" horiz-adv-x="1225" 
d="M745 0h-78l-38 -87q74 -7 119 -49t45 -108q0 -77 -61 -127.5t-158 -50.5q-70 0 -142 29l39 104q41 -19 85 -19q49 0 80.5 24t31.5 62t-34.5 63t-92.5 25h-11t-11 -1l52 135h-90v1268h-456v232h1175v-232h-455v-1268z" />
    <glyph glyph-name="tcedilla" unicode="&#x163;" horiz-adv-x="867" 
d="M804 26q-110 -46 -212 -46q-13 0 -26 1l-26 2l-31 -70q74 -7 119 -49t45 -108q0 -77 -61.5 -127.5t-157.5 -50.5q-70 0 -142 29l39 104q41 -19 85 -19q48 0 80 24t32 62t-34.5 63t-92.5 25h-11t-11 -1l54 139q-99 38 -157 125.5t-58 208.5v442h-175v220h188v250h233v-250
h285v-220h-285v-397q0 -85 46.5 -134t116.5 -49q62 0 123 38z" />
    <glyph glyph-name="Tcaron" unicode="&#x164;" horiz-adv-x="1226" 
d="M716 1664h-205l-217 336h182l138 -234l138 234h181zM745 0h-264v1268h-456v232h1176v-232h-456v-1268z" />
    <glyph glyph-name="tcaron" unicode="&#x165;" horiz-adv-x="1091" 
d="M945 1070h-141l101 450h173zM792 26q-110 -46 -213 -46q-105 0 -184.5 45t-124 125.5t-44.5 187.5v442h-175v220h187v250h234v-250h284v-220h-284v-397q0 -85 46 -134t117 -49q62 0 123 38z" />
    <glyph glyph-name="Tbar" unicode="&#x166;" horiz-adv-x="1226" 
d="M954 615h-209v-615h-264v615h-210v142h210v511h-456v232h1176v-232h-456v-511h209v-142z" />
    <glyph glyph-name="tbar" unicode="&#x167;" horiz-adv-x="868" 
d="M765 465h-280v-103q0 -73 45 -119.5t116 -46.5q63 0 124 38l35 -208q-110 -46 -213 -46q-105 0 -185 45t-124 125.5t-44 187.5v127h-176v108h176v207h-175v220h187v250h234v-250h284v-220h-284v-207h280v-108z" />
    <glyph glyph-name="Utilde" unicode="&#x168;" horiz-adv-x="1559" 
d="M1141 1961q-5 -117 -58 -179t-149 -62q-58 0 -98.5 21t-80.5 52q-28 21 -57.5 37t-68.5 16q-103 0 -115 -116h-96q11 240 208 240q65 0 108 -22t78 -48q30 -22 59.5 -38t66.5 -16q95 0 107 115h96zM1426 1500v-827q0 -218 -77.5 -376t-222.5 -242.5t-347 -84.5
q-201 0 -346 84.5t-222.5 242.5t-77.5 376v827h264v-797q0 -163 44 -275t129.5 -169t208.5 -57q124 0 209.5 57t129.5 169t44 275v797h264z" />
    <glyph glyph-name="utilde" unicode="&#x169;" 
d="M960 1461q-4 -117 -57 -179t-148 -62q-59 0 -99 21t-78 49q-30 22 -59.5 39t-69.5 17q-103 0 -115 -116h-96q11 240 208 240q65 0 108 -22.5t78 -47.5q31 -22 60 -38t66 -16q95 0 107 115h95zM1090 0h-203l-8 161q-54 -88 -142 -134.5t-208 -46.5q-193 0 -304.5 118.5
t-111.5 326.5v575h246v-528q0 -125 63.5 -197.5t172.5 -72.5q113 0 181 77t68 205v516h246v-1000z" />
    <glyph glyph-name="Umacron" unicode="&#x16a;" horiz-adv-x="1559" 
d="M1114 1765h-669v142h669v-142zM1426 1500v-827q0 -218 -77.5 -376t-222 -242.5t-346.5 -84.5q-201 0 -346 84.5t-223 242.5t-78 376v827h264v-797q0 -163 44 -275t130 -169t209 -57q124 0 209 57t129 169t44 275v797h264z" />
    <glyph glyph-name="umacron" unicode="&#x16b;" 
d="M934 1265h-669v142h669v-142zM1090 0h-203l-8 161q-54 -88 -142 -134.5t-208 -46.5q-193 0 -304.5 118.5t-111.5 326.5v575h246v-528q0 -125 63.5 -197.5t172.5 -72.5q113 0 181 77t68 205v516h246v-1000z" />
    <glyph glyph-name="Ubreve" unicode="&#x16c;" horiz-adv-x="1559" 
d="M1094 2000q0 -94 -40 -166.5t-111 -113.5t-164 -41q-92 0 -163 41t-111.5 113.5t-40.5 166.5h142q0 -90 48 -145t126 -55t125.5 55t47.5 145h141zM1426 1500v-827q0 -218 -77.5 -376t-222 -242.5t-346.5 -84.5q-201 0 -346 84.5t-223 242.5t-78 376v827h264v-797
q0 -163 44 -275t130 -169t209 -57q124 0 209 57t129 169t44 275v797h264z" />
    <glyph glyph-name="ubreve" unicode="&#x16d;" 
d="M914 1500q0 -94 -40 -166.5t-111 -113.5t-163 -41q-93 0 -164 41t-111 113.5t-40 166.5h141q0 -90 48 -145t126 -55t125.5 55t47.5 145h141zM1090 0h-203l-8 161q-54 -88 -142 -134.5t-208 -46.5q-193 0 -304.5 118.5t-111.5 326.5v575h246v-528q0 -125 63.5 -197.5
t172.5 -72.5q113 0 181 77t68 205v516h246v-1000z" />
    <glyph glyph-name="Uring" unicode="&#x16e;" horiz-adv-x="1559" 
d="M779 1596q-98 0 -158 58t-60 154q0 95 60 153.5t158 58.5q99 0 159 -58.5t60 -153.5q0 -96 -60 -154t-159 -58zM779 1697q49 0 79.5 30.5t30.5 80.5t-30.5 80t-79.5 30t-79 -30t-30 -80t30 -80.5t79 -30.5zM1426 1500v-827q0 -218 -77.5 -376t-222 -242.5t-346.5 -84.5
q-201 0 -346 84.5t-223 242.5t-78 376v827h264v-797q0 -163 44 -275t130 -169t209 -57q124 0 209 57t129 169t44 275v797h264z" />
    <glyph glyph-name="uring" unicode="&#x16f;" 
d="M600 1096q-99 0 -159 58t-60 154q0 95 60 153.5t159 58.5q98 0 158 -58.5t60 -153.5q0 -96 -60 -154t-158 -58zM600 1197q49 0 78.5 30.5t29.5 80.5t-29.5 80t-78.5 30t-79.5 -30t-30.5 -80t30.5 -80.5t79.5 -30.5zM1090 0h-203l-8 161q-54 -88 -142 -134.5t-208 -46.5
q-193 0 -304.5 118.5t-111.5 326.5v575h246v-528q0 -125 63.5 -197.5t172.5 -72.5q113 0 181 77t68 205v516h246v-1000z" />
    <glyph glyph-name="Uhungarumlaut" unicode="&#x170;" horiz-adv-x="1559" 
d="M636 1664h-176l146 336h226zM1030 1664h-176l146 336h227zM1426 1500v-827q0 -218 -77.5 -376t-222 -242.5t-346.5 -84.5q-201 0 -346 84.5t-223 242.5t-78 376v827h264v-797q0 -163 44 -275t130 -169t209 -57q124 0 209 57t129 169t44 275v797h264z" />
    <glyph glyph-name="uhungarumlaut" unicode="&#x171;" horiz-adv-x="1224" 
d="M479 1164h-175l146 336h227zM874 1164h-176l147 336h226zM1090 0h-203l-8 161q-54 -88 -142 -134.5t-208 -46.5q-193 0 -304.5 118.5t-111.5 326.5v575h246v-528q0 -125 63.5 -197.5t172.5 -72.5q113 0 181 77t68 205v516h246v-1000z" />
    <glyph glyph-name="Uogonek" unicode="&#x172;" horiz-adv-x="1559" 
d="M1426 1500v-827q0 -260 -109 -433t-307 -236q-69 -29 -112 -81.5t-43 -104.5q0 -44 33.5 -75t93.5 -34l-18 -125q-107 0 -170 51t-63 129q0 61 36.5 116.5t101.5 94.5q-21 -3 -43.5 -4t-46.5 -1q-201 0 -346 84.5t-222.5 242.5t-77.5 376v827h264v-797q0 -163 44 -275
t129.5 -169t208.5 -57q124 0 209.5 57t129.5 169t44 275v797h264z" />
    <glyph glyph-name="uogonek" unicode="&#x173;" 
d="M1090 0h-23q-66 -30 -106 -81t-40 -101q0 -44 33.5 -75t93.5 -34l-19 -125q-107 0 -170 51t-63 129q0 71 50.5 134.5t135.5 101.5h-95l-8 161q-54 -88 -142 -134.5t-208 -46.5q-193 0 -304.5 118.5t-111.5 326.5v575h246v-528q0 -125 63.5 -197.5t172.5 -72.5
q113 0 181 77t68 205v516h246v-1000z" />
    <glyph glyph-name="Wcircumflex" unicode="&#x174;" horiz-adv-x="2187" 
d="M1413 1664h-182l-138 234l-138 -234h-182l218 336h204zM1664 0h-240l-329 1060l-330 -1060h-240l-488 1500h277l331 -1065l330 1065h239l329 -1062l329 1062h278z" />
    <glyph glyph-name="wcircumflex" unicode="&#x175;" horiz-adv-x="1645" 
d="M1142 1164h-182l-138 234l-138 -234h-181l217 336h205zM1286 0h-282l-182 666l-182 -666h-282l-321 1000h260l199 -732l216 732h220l216 -733l199 733h261z" />
    <glyph glyph-name="Ycircumflex" unicode="&#x176;" horiz-adv-x="1447" 
d="M1043 1664h-182l-138 234l-138 -234h-181l217 336h205zM855 0h-264v641l-572 859h320l383 -630l386 630h320l-573 -861v-639z" />
    <glyph glyph-name="ycircumflex" unicode="&#x177;" horiz-adv-x="1253" 
d="M975 1164h-182l-138 234l-139 -234h-181l218 336h205zM595 -500h-262l208 504l-504 996h284l337 -715l296 715h262z" />
    <glyph glyph-name="Ydieresis" unicode="&#x178;" horiz-adv-x="1447" 
d="M855 0h-264v641l-572 859h321l383 -630l385 630h320l-573 -861v-639zM950 1724q-49 0 -79.5 30.5t-30.5 79.5q0 50 30.5 80t79.5 30t79 -30t30 -80q0 -49 -30 -79.5t-79 -30.5zM498 1724q-49 0 -79.5 30.5t-30.5 79.5q0 50 30.5 80t79.5 30q50 0 80 -30t30 -80
q0 -49 -30 -79.5t-80 -30.5z" />
    <glyph glyph-name="Zacute" unicode="&#x179;" horiz-adv-x="1287" 
d="M734 1664h-176l146 336h226zM1212 0h-1137v197l780 1071h-740v232h1084v-207l-772 -1061h785v-232z" />
    <glyph glyph-name="zacute" unicode="&#x17a;" horiz-adv-x="1085" 
d="M632 1164h-176l147 336h226zM1020 0h-955v127l539 652h-511v221h895v-107l-555 -672h587v-221z" />
    <glyph glyph-name="Zdotaccent" unicode="&#x17b;" horiz-adv-x="1287" 
d="M1212 0h-1137v197l779 1071h-739v232h1084v-207l-772 -1061h785v-232zM674 1714q-49 0 -79.5 30t-30.5 80q0 49 30.5 79.5t79.5 30.5t79.5 -30.5t30.5 -79.5q0 -50 -30.5 -80t-79.5 -30z" />
    <glyph glyph-name="zdotaccent" unicode="&#x17c;" horiz-adv-x="1085" 
d="M542 1221q-47 0 -76.5 29.5t-29.5 77.5q0 47 29.5 76.5t76.5 29.5q48 0 77 -29.5t29 -76.5q0 -48 -29 -77.5t-77 -29.5zM1020 0h-955v127l539 652h-511v221h895v-107l-555 -672h587v-221z" />
    <glyph glyph-name="Zcaron" unicode="&#x17d;" horiz-adv-x="1287" 
d="M767 1664h-204l-218 336h182l138 -234l138 234h182zM1212 0h-1137v197l780 1071h-740v232h1084v-207l-772 -1061h785v-232z" />
    <glyph glyph-name="zcaron" unicode="&#x17e;" horiz-adv-x="1085" 
d="M665 1164h-205l-217 336h182l138 -234l138 234h181zM1020 0h-955v127l538 652h-511v221h896v-107l-555 -672h587v-221z" />
    <glyph glyph-name="longs" unicode="&#x17f;" horiz-adv-x="732" 
d="M398 0h-265v1133q0 186 99 291.5t273 105.5q89 0 190 -30l-55 -214q-42 13 -78 13q-76 0 -120 -50t-44 -137v-1112z" />
    <glyph glyph-name="florin" unicode="&#x192;" horiz-adv-x="1194" 
d="M1008 780h-293l-33 -467q-7 -101 -56.5 -178.5t-130.5 -121t-185 -43.5q-76 0 -152.5 24.5t-138.5 68.5l103 188q64 -61 144 -61q73 0 122.5 50t54.5 131l29 409h-219l16 220h219l13 188q8 102 57 178.5t130 120t185 43.5q77 0 154 -24t138 -68l-102 -190q-64 61 -146 61
q-73 0 -121.5 -50t-54.5 -131l-9 -128h291z" />
    <glyph glyph-name="Acaron" unicode="&#x1cd;" horiz-adv-x="1550" 
d="M308 0h-277l604 1500h281l603 -1500h-277l-137 350h-660zM532 581h486l-243 621zM877 1664h-204l-218 336h182l137 -234l139 234h181z" />
    <glyph glyph-name="acaron" unicode="&#x1ce;" horiz-adv-x="1110" 
d="M997 0h-214l-14 123q-55 -68 -137 -105.5t-182 -37.5q-106 0 -189 41.5t-130.5 113.5t-47.5 164q0 97 51.5 170.5t141 115.5t204.5 42q70 0 140.5 -16t130.5 -45v32q0 66 -36 114t-97 74.5t-137 26.5q-69 0 -138 -23.5t-129 -69.5l-70 193q96 53 196.5 80t196.5 27
q141 0 244 -55.5t159.5 -158t56.5 -241.5v-565zM501 178q65 0 120.5 27t91 75.5t37.5 111.5v11q-47 34 -106 52.5t-119 18.5q-92 0 -151 -41.5t-59 -108.5q0 -41 24 -74.5t66.5 -52.5t95.5 -19zM657 1164h-204l-218 336h182l137 -234l139 234h181z" />
    <glyph glyph-name="Scommaaccent" unicode="&#x218;" horiz-adv-x="1218" 
d="M63 156l125 202q69 -54 133 -89.5t129 -52.5t132 -17q86 0 149.5 26.5t98.5 73.5t35 110q0 71 -42.5 118.5t-111.5 82t-148 67.5q-72 30 -145.5 65t-133.5 83.5t-96.5 117.5t-36.5 167q0 127 64 221.5t177 146t258 51.5q102 0 209.5 -26.5t212.5 -80.5l-105 -213
q-71 42 -151 65.5t-153 23.5q-72 0 -126.5 -22.5t-85 -64t-30.5 -96.5q0 -65 41 -110t107.5 -79.5t143.5 -68.5q74 -32 148.5 -70t136.5 -88.5t99.5 -121.5t37.5 -171q0 -130 -67.5 -228.5t-189.5 -153t-285 -54.5q-146 0 -280 47t-250 139zM555 -505l-82 75q48 37 74 93.5
t26 117.5q0 76 -37 134l174 37q25 -68 25 -138q0 -103 -49 -189.5t-131 -129.5z" />
    <glyph glyph-name="scommaaccent" unicode="&#x219;" horiz-adv-x="906" 
d="M83 86l56 214q33 -33 82 -60t104.5 -42.5t108.5 -15.5q71 0 114 29.5t43 77.5q0 38 -25.5 63.5t-67.5 45t-92 37.5q-66 25 -134 58.5t-114 89t-46 147.5q0 89 45.5 154t127.5 100.5t191 35.5q172 0 343 -86l-71 -202q-32 24 -78 44t-94 32t-87 12q-57 0 -91 -25t-34 -66
q0 -28 19 -50.5t59 -43.5t103 -47q68 -26 136.5 -60.5t115 -91t46.5 -149.5q0 -92 -49.5 -161t-138 -107.5t-206.5 -38.5q-196 0 -366 106zM404 -505l-82 75q49 37 75 93.5t26 117.5q0 76 -37 134l174 37q24 -68 24 -138q0 -103 -48.5 -189.5t-131.5 -129.5z" />
    <glyph glyph-name="Tcommaaccent" unicode="&#x21a;" horiz-adv-x="1226" 
d="M745 0h-264v1268h-456v232h1176v-232h-456v-1268zM552 -505l-82 75q49 37 74.5 93.5t25.5 117.5q0 76 -37 134l175 37q24 -66 24 -138q0 -103 -49 -189.5t-131 -129.5z" />
    <glyph glyph-name="uni021B" unicode="&#x21b;" horiz-adv-x="867" 
d="M804 26q-110 -46 -213 -46q-105 0 -184.5 45t-124 125.5t-44.5 187.5v442h-175v220h187v250h234v-250h284v-220h-284v-397q0 -85 46 -134t117 -49q62 0 122 38zM390 -505l-82 75q49 37 74.5 93.5t25.5 117.5q0 76 -37 134l175 37q24 -66 24 -138q0 -103 -48.5 -189.5
t-131.5 -129.5z" />
    <glyph glyph-name="dotlessj" unicode="&#x237;" horiz-adv-x="514" 
d="M-135 -504v195q16 -3 30.5 -4t28.5 -1q101 0 160.5 68t59.5 187v1059h247v-1069q0 -220 -97.5 -335.5t-282.5 -115.5q-33 0 -70 4.5t-76 11.5z" />
    <glyph glyph-name="circumflex" unicode="&#x2c6;" horiz-adv-x="906" 
d="M773 1164h-182l-139 234l-137 -234h-182l217 336h205z" />
    <glyph glyph-name="caron" unicode="&#x2c7;" horiz-adv-x="905" 
d="M555 1164h-204l-218 336h182l137 -234l139 234h181z" />
    <glyph glyph-name="macronmod" unicode="&#x2c9;" horiz-adv-x="935" 
d="M802 1258h-669v143h669v-143z" />
    <glyph glyph-name="breve" unicode="&#x2d8;" horiz-adv-x="896" 
d="M763 1500q0 -94 -40 -166.5t-111.5 -113.5t-163.5 -41t-163 41t-111.5 113.5t-40.5 166.5h141q0 -90 48 -145t126 -55t125.5 55t47.5 145h142z" />
    <glyph glyph-name="dotaccent" unicode="&#x2d9;" horiz-adv-x="478" 
d="M239 1214q-49 0 -79.5 30t-30.5 80q0 49 30.5 79.5t79.5 30.5t79.5 -30.5t30.5 -79.5q0 -50 -30.5 -80t-79.5 -30z" />
    <glyph glyph-name="ring" unicode="&#x2da;" horiz-adv-x="703" 
d="M352 1096q-99 0 -159 58t-60 154q0 95 60 153.5t159 58.5q98 0 158 -58.5t60 -153.5q0 -96 -60 -154t-158 -58zM352 1197q49 0 79 30.5t30 80.5t-30 80t-79 30q-50 0 -79.5 -30t-29.5 -80t29.5 -80.5t79.5 -30.5z" />
    <glyph glyph-name="ogonek" unicode="&#x2db;" horiz-adv-x="546" 
d="M367 -416q-108 0 -171 51t-63 129q0 74 52.5 138.5t142.5 101.5h85q-70 -29 -112.5 -81.5t-42.5 -104.5q0 -44 33 -75t93 -34z" />
    <glyph glyph-name="tilde" unicode="&#x2dc;" horiz-adv-x="988" 
d="M855 1461q-5 -117 -57.5 -179t-147.5 -62q-60 0 -99.5 21t-78.5 49q-29 22 -59 39t-69 17q-103 0 -115 -116h-96q11 240 208 240q65 0 107.5 -22.5t78.5 -47.5q30 -22 59.5 -38t66.5 -16q95 0 107 115h95z" />
    <glyph glyph-name="hungarumlaut" unicode="&#x2dd;" horiz-adv-x="858" 
d="M229 1164h-175l147 336h225zM624 1164h-176l147 336h226z" />
    <glyph glyph-name="gravecomb" unicode="&#x300;" horiz-adv-x="509" 
d="M436 1164h-176l-197 336h226z" />
    <glyph glyph-name="acutecomb" unicode="&#x301;" horiz-adv-x="509" 
d="M249 1164h-176l147 336h226z" />
    <glyph glyph-name="circumflexcomb" unicode="&#x302;" horiz-adv-x="906" 
d="M773 1164h-182l-139 234l-137 -234h-182l217 336h205z" />
    <glyph glyph-name="tildecomb" unicode="&#x303;" horiz-adv-x="988" 
d="M855 1461q-5 -117 -57.5 -179t-147.5 -62q-60 0 -99.5 21t-78.5 49q-29 22 -59 39t-69 17q-103 0 -115 -116h-96q11 240 208 240q65 0 107.5 -22.5t78.5 -47.5q30 -22 59.5 -38t66.5 -16q95 0 107 115h95z" />
    <glyph glyph-name="macroncomb" unicode="&#x304;" horiz-adv-x="935" 
d="M802 1265h-669v142h669v-142z" />
    <glyph glyph-name="brevecomb" unicode="&#x306;" horiz-adv-x="896" 
d="M763 1500q0 -94 -40 -166.5t-111.5 -113.5t-163.5 -41t-163 41t-111.5 113.5t-40.5 166.5h141q0 -90 48 -145t126 -55t125.5 55t47.5 145h142z" />
    <glyph glyph-name="dotaccentcomb" unicode="&#x307;" horiz-adv-x="478" 
d="M239 1214q-49 0 -79.5 30t-30.5 80q0 49 30.5 79.5t79.5 30.5t79.5 -30.5t30.5 -79.5q0 -50 -30.5 -80t-79.5 -30z" />
    <glyph glyph-name="dieresiscomb" unicode="&#x308;" horiz-adv-x="910" 
d="M681 1224q-49 0 -79.5 30.5t-30.5 79.5q0 50 30.5 80t79.5 30t79 -30t30 -80q0 -49 -30 -79.5t-79 -30.5zM229 1224q-49 0 -79.5 30.5t-30.5 79.5q0 50 30.5 80t79.5 30q50 0 80 -30t30 -80q0 -49 -30 -79.5t-80 -30.5z" />
    <glyph glyph-name="ringcomb" unicode="&#x30a;" horiz-adv-x="703" 
d="M352 1096q-99 0 -159 58t-60 154q0 95 60 153.5t159 58.5q98 0 158 -58.5t60 -153.5q0 -96 -60 -154t-158 -58zM352 1197q49 0 79 30.5t30 80.5t-30 80t-79 30q-50 0 -79.5 -30t-29.5 -80t29.5 -80.5t79.5 -30.5z" />
    <glyph glyph-name="hungarumlautcomb" unicode="&#x30b;" horiz-adv-x="858" 
d="M229 1164h-175l147 336h225zM624 1164h-176l147 336h226z" />
    <glyph glyph-name="caroncomb" unicode="&#x30c;" horiz-adv-x="905" 
d="M555 1164h-204l-218 336h182l137 -234l139 234h181z" />
    <glyph glyph-name="commaturnedabovecomb" unicode="&#x312;" horiz-adv-x="410" 
 />
    <glyph glyph-name="commaaccent" unicode="&#x326;" horiz-adv-x="528" 
d="M215 -505l-82 75q48 37 74 93.5t26 117.5q0 76 -37 134l175 37q24 -66 24 -138q0 -103 -48.5 -189.5t-131.5 -129.5z" />
    <glyph glyph-name="cedillacomb" unicode="&#x327;" horiz-adv-x="570" 
d="M103 -393l40 104q41 -19 84 -19q49 0 80.5 24t31.5 62t-34.5 63t-92.5 25h-11t-11 -1l55 142h97l-42 -94q75 -7 119.5 -49t44.5 -108q0 -77 -61 -127.5t-158 -50.5q-70 0 -142 29z" />
    <glyph glyph-name="ogonekcomb" unicode="&#x328;" horiz-adv-x="546" 
d="M367 -416q-108 0 -171 51t-63 129q0 74 52.5 138.5t142.5 101.5h85q-70 -29 -112.5 -81.5t-42.5 -104.5q0 -44 33 -75t93 -34z" />
    <glyph glyph-name="uni0394" unicode="&#x394;" horiz-adv-x="1597" 
d="M1566 0h-1535l612 1500h311zM406 231h785l-392 996z" />
    <glyph glyph-name="uni03A9" unicode="&#x3a9;" horiz-adv-x="1681" 
d="M1628 0h-635v171q101 51 176.5 142.5t117 208.5t41.5 245q0 157 -62 276.5t-171.5 187t-253.5 67.5t-254 -67.5t-172.5 -187.5t-62.5 -277q0 -128 42 -245t117.5 -208t176.5 -142v-171h-635v232h305q-86 72 -148 166t-95 203t-33 229q0 206 97 364t268 247t394 89
t394 -89t267 -247t96 -364q0 -120 -33 -229.5t-94.5 -203.5t-148.5 -166h306v-231z" />
    <glyph glyph-name="pi" unicode="&#x3c0;" horiz-adv-x="1370" 
d="M1317 129q-38 -70 -101 -109.5t-138 -39.5q-73 0 -132 37t-93 100.5t-34 143.5v537h-263q4 -84 6 -168t2 -168q0 -115 -3.5 -231t-12.5 -231h-246q9 115 12.5 230t3.5 229q0 85 -2 170t-6 169h-35q-114 0 -214 -68l-48 188q122 82 263 82h1006v-202h-216v-558
q0 -54 28.5 -88t72.5 -34q60 0 103 57z" />
    <glyph glyph-name="Wgrave" unicode="&#x1e80;" horiz-adv-x="2187" 
d="M1174 1664h-176l-197 336h226zM1664 0h-240l-329 1060l-330 -1060h-240l-488 1500h277l331 -1065l330 1065h239l330 -1062l328 1062h278z" />
    <glyph glyph-name="wgrave" unicode="&#x1e81;" horiz-adv-x="1645" 
d="M901 1164h-177l-196 336h226zM1286 0h-282l-182 666l-182 -666h-282l-321 1000h260l199 -732l217 732h219l216 -733l199 733h261z" />
    <glyph glyph-name="Wacute" unicode="&#x1e82;" horiz-adv-x="2187" 
d="M1195 1664h-175l146 336h226zM1664 0h-240l-329 1060l-330 -1060h-240l-488 1500h277l331 -1065l330 1065h239l330 -1062l328 1062h278z" />
    <glyph glyph-name="wacute" unicode="&#x1e83;" horiz-adv-x="1645" 
d="M925 1164h-175l146 336h226zM1286 0h-282l-182 666l-182 -666h-282l-321 1000h260l199 -732l217 732h219l216 -733l199 733h261z" />
    <glyph glyph-name="Wdieresis" unicode="&#x1e84;" horiz-adv-x="2186" 
d="M1663 0h-240l-329 1060l-329 -1060h-240l-488 1500h277l330 -1065l330 1065h240l329 -1062l329 1062h277zM1319 1724q-49 0 -79.5 30.5t-30.5 79.5q0 50 30.5 80t79.5 30t79 -30t30 -80q0 -49 -30 -79.5t-79 -30.5zM867 1724q-49 0 -79.5 30.5t-30.5 79.5q0 50 30.5 80
t79.5 30q50 0 80 -30t30 -80q0 -49 -30 -79.5t-80 -30.5z" />
    <glyph glyph-name="wdieresis" unicode="&#x1e85;" horiz-adv-x="1645" 
d="M1286 0h-282l-182 666l-182 -666h-282l-321 1000h260l199 -732l217 732h219l216 -733l200 733h260zM1049 1224q-49 0 -79.5 30.5t-30.5 79.5q0 50 30.5 80t79.5 30t79 -30t30 -80q0 -49 -30 -79.5t-79 -30.5zM597 1224q-49 0 -79.5 30.5t-30.5 79.5q0 50 30.5 80t79.5 30
q50 0 80 -30t30 -80q0 -49 -30 -79.5t-80 -30.5z" />
    <glyph glyph-name="Germandbls" unicode="&#x1e9e;" horiz-adv-x="1338" 
d="M397 0h-264v1010q0 153 65.5 270t181.5 183.5t265 66.5q121 0 222.5 -44.5t170.5 -124t93 -185.5q8 -41 -3 -79.5t-35 -64.5l-273 -308l-14 72q137 4 241 -46.5t162 -141t58 -207.5q0 -126 -64 -223t-176.5 -152.5t-256.5 -55.5q-65 0 -136 11.5t-140 34.5l54 194
q55 -22 97 -31t83 -9q84 0 145.5 29.5t95.5 84t34 129.5q0 79 -39 137t-110 88t-166 25l-64 108l295 345q-14 53 -48.5 94t-86.5 64.5t-117 23.5q-84 0 -144.5 -39.5t-93 -113t-32.5 -174.5v-971z" />
    <glyph glyph-name="Ygrave" unicode="&#x1ef2;" horiz-adv-x="1447" 
d="M855 0h-264v641l-572 859h321l383 -630l385 630h320l-573 -861v-639zM911 1664h-176l-197 336h225z" />
    <glyph glyph-name="ygrave" unicode="&#x1ef3;" horiz-adv-x="1254" 
d="M596 -500h-263l208 504l-496 996h277l336 -715l296 715h263zM814 1164h-176l-197 336h225z" />
    <glyph glyph-name="uni2002" unicode="&#x2002;" horiz-adv-x="1354" 
 />
    <glyph glyph-name="uni2009" unicode="&#x2009;" horiz-adv-x="670" 
 />
    <glyph glyph-name="uni200B" unicode="&#x200b;" horiz-adv-x="330" 
 />
    <glyph glyph-name="endash" unicode="&#x2013;" horiz-adv-x="1286" 
d="M1153 411h-1020v190h1020v-190z" />
    <glyph glyph-name="emdash" unicode="&#x2014;" horiz-adv-x="2306" 
d="M2173 411h-2040v190h2040v-190z" />
    <glyph glyph-name="quoteleft" unicode="&#x2018;" horiz-adv-x="540" 
d="M312 1070h-179l133 450h147z" />
    <glyph glyph-name="quoteright" unicode="&#x2019;" horiz-adv-x="540" 
d="M274 1070h-141l101 450h173z" />
    <glyph glyph-name="quotesinglbase" unicode="&#x201a;" horiz-adv-x="478" 
d="M262 -240h-169l76 428h206z" />
    <glyph glyph-name="quotedblleft" unicode="&#x201c;" horiz-adv-x="922" 
d="M306 1070h-173l133 450h141zM688 1070h-172l132 450h141z" />
    <glyph glyph-name="quotedblright" unicode="&#x201d;" horiz-adv-x="922" 
d="M656 1070h-140l101 450h172zM274 1070h-141l101 450h173z" />
    <glyph glyph-name="quotedblbase" unicode="&#x201e;" horiz-adv-x="864" 
d="M647 -240h-169l76 428h206zM262 -240h-169l76 428h206z" />
    <glyph glyph-name="dagger" unicode="&#x2020;" horiz-adv-x="1166" 
d="M715 0h-264l23 862l-341 -23v232l341 -23l-23 452h264l-23 -453l341 24v-232l-341 23z" />
    <glyph glyph-name="daggerdbl" unicode="&#x2021;" horiz-adv-x="1166" 
d="M715 0h-264l23 459l-341 -30v213l341 -29l-4 133l4 141l-341 -29v213l341 -30l-23 459h264l-23 -459l341 30v-213l-341 29l3 -141l-3 -133l341 29v-213l-341 30z" />
    <glyph glyph-name="bullet" unicode="&#x2022;" horiz-adv-x="551" 
d="M276 528q-75 0 -124 48.5t-49 123.5t49 124t124 49q76 0 124 -49t48 -124t-48 -123.5t-124 -48.5z" />
    <glyph glyph-name="ellipsis" unicode="&#x2026;" horiz-adv-x="1337" 
d="M239 -20q-52 0 -84 32t-32 84q0 51 32 83.5t84 32.5q51 0 83 -32.5t32 -83.5q0 -52 -32 -84t-83 -32zM669 -20q-52 0 -84 32t-32 84q0 51 32 83.5t84 32.5q51 0 83 -32.5t32 -83.5q0 -52 -32 -84t-83 -32zM1099 -20q-52 0 -84 32t-32 84q0 51 32 83.5t84 32.5
q51 0 83 -32.5t32 -83.5q0 -52 -32 -84t-83 -32z" />
    <glyph glyph-name="perthousand" unicode="&#x2030;" horiz-adv-x="2455" 
d="M400 873q-152 0 -244.5 89t-92.5 234q0 146 93 235t244 89q152 0 244 -89t92 -235q0 -145 -92.5 -234t-243.5 -89zM444 0h-205l967 1500h205zM400 1014q73 0 118 50t45 133t-44.5 133t-118.5 50t-119 -50t-45 -133t45 -133t119 -50zM2056 -17q-151 0 -244 89t-93 235
t93 235t244 89q152 0 244 -89t92 -235q0 -145 -92 -234.5t-244 -89.5zM1243 -20q-151 0 -243.5 89t-92.5 234q0 146 92.5 235t243.5 89q152 0 244.5 -89t92.5 -235q0 -145 -93 -234t-244 -89zM2056 124q73 0 118 50t45 133t-44.5 133t-118.5 50q-73 0 -118 -50t-45 -133
t45 -133t118 -50zM1243 121q73 0 118.5 50t45.5 132q0 83 -45 133.5t-119 50.5q-73 0 -118 -50.5t-45 -133.5q0 -82 45 -132t118 -50z" />
    <glyph glyph-name="minute" unicode="&#x2032;" horiz-adv-x="449" 
d="M292 1085h-135l-24 435h183z" />
    <glyph glyph-name="second" unicode="&#x2033;" horiz-adv-x="782" 
d="M292 1085h-135l-24 435h183zM625 1085h-135l-24 435h183z" />
    <glyph glyph-name="guilsinglleft" unicode="&#x2039;" horiz-adv-x="764" 
d="M631 114h-235l-343 401l343 401h235l-351 -401z" />
    <glyph glyph-name="guilsinglright" unicode="&#x203a;" horiz-adv-x="764" 
d="M367 114h-234l350 401l-350 401h234l344 -401z" />
    <glyph glyph-name="fraction" unicode="&#x2044;" horiz-adv-x="1200" 
d="M171 0h-158l1022 1540h152z" />
    <glyph glyph-name="four.superior" unicode="&#x2074;" horiz-adv-x="708" 
d="M564 730h-141v166h-370v109l376 495h135v-479h91v-125h-91v-166zM423 1021v300l-230 -300h230z" />
    <glyph glyph-name="franc" unicode="&#x20a3;" horiz-adv-x="1230" 
d="M836 279h-391v-279h-264v279h-158v140h158v1081h926v-232h-662v-395h622v-231h-622v-223h391v-140z" />
    <glyph glyph-name="uni20A8" unicode="&#x20a8;" horiz-adv-x="1194" 
d="M1061 1359h-304q59 -44 97 -104t48 -131h156v-104h-154q-9 -92 -60 -166t-134.5 -124.5t-192.5 -70.5l431 -659h-274l-408 645h-133v141h182q84 0 151 29.5t110 82.5t55 122h-498v104h499q-11 68 -52.5 121.5t-106 83.5t-145.5 30h-195v141h928v-141z" />
    <glyph glyph-name="Euro" unicode="&#x20ac;" horiz-adv-x="1087" 
d="M874 831h-408q-3 -21 -4 -40.5t-1 -40.5t1 -40t4 -41h391l-14 -115h-349q34 -108 106 -187t174.5 -122t229.5 -43v-232q-206 0 -370 72t-273 203.5t-149 308.5h-159l14 115h128q-2 24 -3.5 42.5t-1.5 44.5q0 20 1 37t4 38h-142l14 115h145q40 178 149 309t273 203t370 72
v-232q-126 0 -229 -43t-175 -121.5t-106 -187.5h394z" />
    <glyph glyph-name="uni2113" unicode="&#x2113;" horiz-adv-x="1109" 
d="M994 346q-19 -173 -118.5 -274.5t-251.5 -101.5q-109 0 -190 52.5t-126.5 146.5t-45.5 220v109q-44 -16 -91 -32t-97 -30l-47 173q65 20 123.5 39.5t111.5 41.5v446q0 118 46 207t129.5 138t193.5 49q107 0 186 -45.5t122.5 -127t43.5 -192.5q0 -172 -113.5 -312
t-349.5 -254v-171q0 -108 39 -169t107 -61q64 0 108.5 51t50.5 132zM520 806q122 74 181.5 158.5t59.5 182.5q0 73 -31 114t-87 41q-58 0 -90.5 -46t-32.5 -127v-323z" />
    <glyph glyph-name="trademark" unicode="&#x2122;" horiz-adv-x="1582" 
d="M378 780h-134v602h-215v118h564v-118h-215v-602zM1449 780h-134v523l-192 -402h-104l-191 400v-521h-134v720h166l211 -451l212 451h166v-720z" />
    <glyph glyph-name="estimated" unicode="&#x212e;" horiz-adv-x="1152" 
d="M1047 136q-100 -82 -199.5 -119t-214.5 -37q-165 0 -293 68.5t-201.5 188t-73.5 272.5q0 149 66.5 264t182.5 181t265 66t263.5 -65.5t179.5 -180.5t65 -264v-30h-801v-219q0 -59 47.5 -109t127 -79.5t174.5 -29.5q203 0 376 145zM866 543v215q0 55 -39.5 100t-105.5 72
t-145 27t-145 -27t-105.5 -72t-39.5 -100v-215h580z" />
    <glyph glyph-name="arrowup" unicode="&#x2191;" horiz-adv-x="1032" 
d="M767 600h-110l-143 751l-74 -951h-109l138 1029l-98 -229l83 -200l140 300l-32 122z" />
    <glyph glyph-name="arrowdown" unicode="&#x2193;" horiz-adv-x="1032" 
d="M767 900l-205 -822l32 122l-140 300l-83 -200l98 -229l-138 1029h109l74 -951l143 751h110z" />
    <glyph glyph-name="partialdiff" unicode="&#x2202;" 
d="M321 1135l-174 78q52 147 171 232t271 85q126 0 232 -59t184 -166t121.5 -251t43.5 -316q0 -231 -74.5 -404t-209 -268.5t-316.5 -95.5q-142 0 -252 58t-172.5 160.5t-62.5 235.5q0 146 75 260t204.5 179.5t293.5 65.5q64 0 128.5 -10.5t125.5 -31.5q-18 127 -67 223
t-119 150t-155 54q-82 0 -148.5 -48t-99.5 -131zM918 691q-114 43 -218 43q-100 0 -179 -37.5t-124 -103t-45 -149.5q0 -70 31.5 -125t86 -86t124.5 -31q87 0 146.5 44.5t97.5 117.5t57 159t23 168z" />
    <glyph glyph-name="Delta" unicode="&#x2206;" horiz-adv-x="1225" 
d="M1085 0h-946l-86 151l433 979h253l433 -979zM328 221h567l-282 660z" />
    <glyph glyph-name="product" unicode="&#x220f;" horiz-adv-x="1843" 
d="M1562 -400h-264v1668h-752v-1668h-264v1668l-219 13v219h1717v-219l-218 -13v-1668z" />
    <glyph glyph-name="summation" unicode="&#x2211;" horiz-adv-x="1382" 
d="M1259 0h-1126v167l458 583l-458 584v166h1126v-231h-756l370 -519l-370 -519h756v-231z" />
    <glyph glyph-name="minus" unicode="&#x2212;" horiz-adv-x="1066" 
d="M933 407h-800v190h800v-190z" />
    <glyph glyph-name="divisionslash" unicode="&#x2215;" horiz-adv-x="909" 
d="M252 -20h-233l638 1540h233z" />
    <glyph glyph-name="uni2219" unicode="&#x2219;" horiz-adv-x="477" 
d="M239 414q-52 0 -84 32t-32 84t32 84t84 32q51 0 83 -32t32 -84t-32 -84t-83 -32z" />
    <glyph glyph-name="radical" unicode="&#x221a;" horiz-adv-x="1215" 
d="M766 0h-264l-254 615h-145v157h291l213 -546l296 1334h209z" />
    <glyph glyph-name="infinity" unicode="&#x221e;" horiz-adv-x="1928" 
d="M1436 84q-96 0 -173.5 31.5t-144 93t-132.5 152.5q-51 -72 -115 -135t-150 -102.5t-207 -39.5q-135 0 -239.5 52t-163 144t-58.5 211q0 118 58 209t159 143t232 52q101 0 183 -33.5t151.5 -96t133.5 -151.5q53 73 115 137t145.5 104t199.5 40q131 0 231 -52.5t157 -144
t57 -210.5q0 -118 -56 -209t-155 -143t-228 -52zM889 502q-56 82 -109 135.5t-109.5 80t-126.5 26.5q-79 0 -140 -31.5t-95.5 -86t-34.5 -126.5q0 -70 33 -122t92 -81.5t137 -29.5q84 0 146.5 32.5t112 86t94.5 116.5zM1403 235q74 0 130.5 31t88.5 86t32 125t-31.5 123
t-88 83t-130.5 30q-78 0 -137.5 -32.5t-107 -86t-91.5 -117.5q46 -65 94 -120t106.5 -88.5t134.5 -33.5z" />
    <glyph glyph-name="integral" unicode="&#x222b;" horiz-adv-x="728" 
d="M41 -320v230q118 0 172.5 63t54.5 191l-76 1169q0 239 122 363t373 124v-231q-120 0 -175.5 -62.5t-55.5 -191.5l76 -1171q0 -238 -121 -361t-370 -123z" />
    <glyph glyph-name="approxequal" unicode="&#x2248;" horiz-adv-x="1308" 
d="M1175 713q-140 -148 -278 -148q-51 0 -106 19t-131 56q-59 28 -119 52t-124 24q-140 0 -284 -144v180q146 143 287 143q54 0 109.5 -19t132.5 -56q59 -28 118 -51.5t120 -23.5q138 0 275 148v-180zM1175 241q-140 -148 -278 -148q-51 0 -106 18.5t-131 55.5
q-59 29 -119 52.5t-124 23.5q-140 0 -284 -144v179q147 144 286 144q64 0 124 -23.5t119 -52.5q76 -36 131 -55t106 -19q139 0 276 149v-180z" />
    <glyph glyph-name="notequal" unicode="&#x2260;" horiz-adv-x="1221" 
d="M449 -67h-142l92 222h-266v190h346l122 297h-468v190h547l92 221h142l-92 -221h266v-190h-346l-122 -297h468v-190h-547z" />
    <glyph glyph-name="lessequal" unicode="&#x2264;" horiz-adv-x="1191" 
d="M1057 279l-924 451v121l924 448v-207l-671 -302l671 -305v-206zM1058 0h-925v191h925v-191z" />
    <glyph glyph-name="greaterequal" unicode="&#x2265;" horiz-adv-x="1191" 
d="M134 279v206l672 305l-672 302v207l924 -448v-121zM1058 0h-925v191h925v-191z" />
    <glyph glyph-name="lozenge" unicode="&#x25ca;" horiz-adv-x="1214" 
d="M700 -20h-188l-459 680l460 681h189l459 -680zM606 211l288 450l-287 447l-288 -448z" />
    <glyph glyph-name="uniFEFF" unicode="&#xfeff;" horiz-adv-x="1354" 
 />
    </font>
</defs>
</svg>
